Login
» » Mission: Noël - Les Aventures de la famille Noël (2011)

Mission: Noël - Les Aventures de la famille Noël (2011)


Mission: Noël - Les Aventures de la famille Noël (2011)
BDRip | AVI / XVID, 1605 Kbps | 624x336 | 1h 37mn | 1.36 GB | Francais: AC3, 384 Kbps (6 ch)
BDRip | AVI / XVID, 858 Kbps | 640x352 | 1h 37mn | 698 MB | Francais: MP3, 128 Kbps (2 ch)
Genre: Animation | Comedie | Drame | Famille

Comment le Pere Noel fait-il pour apporter tous les cadeaux, a tous les enfants du monde, en une seule nuit? Qui ne s'est jamais pose cette question? Voici la reponse: il s'agit d'une operation secrete impliquant une technologie de pointe, soigneusement preparee dans une region secrete du pole Nord' Pourtant, cette fois, un grain de sable va mettre la magie en danger. Un enfant a ete oublie! Et pour couronner le tout, c'est Arthur, le plus jeune fils du Pere Noel et le moins doue de la famille, qui va tenter de sauver la situation avec son drole de grand-pere et une lutine obsedee par l'emballage des cadeaux' La mission s'annonce pleine d'aventures!

imdb

mediainfo - 1.36 GB:
General
Complete name : Arthur.Christmas.2011.FRENCH.BRRip.XviD.AC3-TMB.avi
Format : AVI
Format/Info : Audio Video Interleave
File size : 1.36 GiB
Duration : 1h 37mn
Overall bit rate : 2 000 Kbps

Video
ID : 0
Format : MPEG-4 Visual
Format profile : Advanced [email protected]
Format settings, BVOP : 2
Format settings, QPel : No
Format settings, GMC : No warppoints
Format settings, Matrix : Default (H.263)
Codec ID : XVID
Codec ID/Hint : XviD
Duration : 1h 37mn
Bit rate : 1 605 Kbps
Width : 624 pixels
Height : 336 pixels
Display aspect ratio : 1.85:1
Frame rate : 23.976 fps
Color space : YUV
Chroma subsampling : 4:2:0
Bit depth : 8 bits
Scan type : Progressive
Compression mode : Lossy
Bits/(Pixel*Frame) : 0.319
Stream size : 1.09 GiB (80%)
Writing library : XviD 64

Audio
ID : 1
Format : AC-3
Format/Info : Audio Coding 3
Mode extension : CM (complete main)
Format settings, Endianness : Big
Codec ID : 2000
Duration : 1h 37mn
Source duration : 1h 37mn
Bit rate mode : Constant
Bit rate : 384 Kbps
Channel(s) : 6 channels
Channel positions : Front: L C R, Side: L R, LFE
Sampling rate : 48.0 KHz
Bit depth : 16 bits
Compression mode : Lossy
Stream size : 268 MiB (19%)
Alignment : Aligned on interleaves
Interleave, duration : 32 ms (0.77 video frame)

mediainfo - 698 MB:
General
Complete name : aymo-arthur.xvid.avi
Format : AVI
Format/Info : Audio Video Interleave
File size : 698 MiB
Duration : 1h 37mn
Overall bit rate mode : Variable
Overall bit rate : 1 001 Kbps
Writing application : Nandub v1.0rc2
Writing library : Nandub build 1852/release

Video
ID : 0
Format : MPEG-4 Visual
Format profile : Advanced [email protected]
Format settings, BVOP : 1
Format settings, QPel : No
Format settings, GMC : No warppoints
Format settings, Matrix : Default (H.263)
Muxing mode : Packed bitstream
Codec ID : XVID
Codec ID/Hint : XviD
Duration : 1h 37mn
Bit rate : 858 Kbps
Width : 640 pixels
Height : 352 pixels
Display aspect ratio : 16:9
Frame rate : 23.976 fps
Color space : YUV
Chroma subsampling : 4:2:0
Bit depth : 8 bits
Scan type : Progressive
Compression mode : Lossy
Bits/(Pixel*Frame) : 0.159
Stream size : 598 MiB (86%)
Writing library : XviD 64

Audio
ID : 1
Format : MPEG Audio
Format version : Version 1
Format profile : Layer 3
Mode : Joint stereo
Codec ID : 55
Codec ID/Hint : MP3
Duration : 1h 37mn
Bit rate mode : Variable
Bit rate : 128 Kbps
Channel(s) : 2 channels
Sampling rate : 48.0 KHz
Compression mode : Lossy
Stream size : 90.7 MiB (13%)
Alignment : Aligned on interleaves
Interleave, duration : 24 ms (0.58 video frame)
Interleave, preload duration : 135 ms
Writing library : LAME3.96r
Encoding settings : -m j -V 4 -q 3 -lowpass 17.5 --abr 128


Les captures d'ecran - 1.36 GB:





Les captures d'ecran - 698 MB:







Pas plus de miroirs!



Free Full Download {title limit="40"} form MediaFire, Uploaded.to, Zippyshare, FileSonic, turbobit.net, ul.to, ORON, DepositFiles, rapidgator.net, letitbit.net, extabit.com, filefactory.com. {title limit="40"} Torrent Download with keygen, crack, serial, dvdrip, 1024, 2016, HD, 720p, 2015
226
      
Rating:
(votes: 0)

Reviews -
0