Login
» » Lord Sutch And Heavy Friends - Lord Sutch And Heavy Friends (1970)

Lord Sutch And Heavy Friends - Lord Sutch And Heavy Friends (1970)

Lord Sutch And Heavy Friends - Lord Sutch And Heavy Friends (1970) front

Lord Sutch And Heavy Friends - Lord Sutch And Heavy Friends (1970)
EAC | Flac(Image) + Cue + Log & MP3 CBR 320Kbps
1990 | Linea Records, LECD 9.00947 O | ~ 222 or 87 Mb | Scans included
Psychedelic Rock / Hard Rock / Rock & Roll

Lord Sutch and Heavy Friends is the debut album of English rock singer Screaming Lord Sutch. Recording began in May 1969 at Mystic Studios in Hollywood and released on Cotillion Records in 1970. The album featured an all-star line-up with contributions from Led Zeppelin's Jimmy Page (who also produced the album) and John Bonham, guitarist Jeff Beck, session keyboardist Nicky Hopkins, session guitarist Deniel Edwards and Jimi Hendrix Experience bass-player Noel Redding. Rick Brown and Carlo Little were previously with The Savages. Many of the musicians who sessioned for Sutch on this album had grave misgivings upon its release. They were under the assumption these were demo quality recordings. As a result the artists disowned the project and the album did poorly saleswise. It also seriously damaged Sutch's reputation with the musicians involved. "I just went down to have a laugh, playing some old rock 'n' roll, a bit of a send-up. The whole joke sort of reversed itself and became ugly," Jimmy Page said of the record...

~ wiki

Lord Sutch And Heavy Friends - Lord Sutch And Heavy Friends (1970)


Lord Sutch And Heavy Friends - Lord Sutch And Heavy Friends (1970):

Lord Sutch And Heavy Friends - Lord Sutch And Heavy Friends (1970) cd

Tracklist:

01 Wailing Sounds
02 Cause I Love You
03 Flashing Lights
04 Gutty Guitar
05 Would You Believe
06 Smoke & Fire
07 Thumping Beat
08 Union Jack Car
09 One For You Baby
10 LONDON
11 Brightest Light
12 Baby Come Back

EAC Log
Exact Audio Copy V0.99 prebeta 4 from 23. January 2008

Отчёт EAC об извлечении, выполненном 12. апреля 2008, 14:12

LORD SUTCH & Heavy Friends / 70 Lord Sutch & Heavy Friends

Дисковод: ASUS CRW-5232A3 Adapter: 0 ID: 0

Режим чтения : Достоверность
Использование точного потока : Да
Отключение кэша аудио : Да
Использование указателей C2 : Нет

Коррекция смещения при чтении : 6
Способность читать области Lead-in и Lead-out : Нет
Заполнение пропущенных сэмплов тишиной : Да
Удаление блоков с тишиной в начале и конце : Нет
При вычислениях CRC использовались нулевые сэмплы : Нет
Интерфейс : Встроенный Win32-интерфейс для Win NT/2000

Выходной формат : Внутренние WAV-операции
Формат сэмплов : 44.100 Гц; 16 бит; стерео TOC извлечённого CD

Трек | Старт | Длительность | Начальный сектор | Конечный сектор
---------------------------------------------------------------------
1 | 0:00.00 | 2:40.00 | 0 | 11999
2 | 2:40.00 | 2:47.00 | 12000 | 24524
3 | 5:27.00 | 3:13.45 | 24525 | 39044
4 | 8:40.45 | 2:34.42 | 39045 | 50636
5 | 11:15.12 | 3:21.33 | 50637 | 65744
6 | 14:36.45 | 2:38.42 | 65745 | 77636
7 | 17:15.12 | 3:07.18 | 77637 | 91679
8 | 20:22.30 | 3:05.25 | 91680 | 105579
9 | 23:27.55 | 2:46.20 | 105580 | 118049
10 | 26:14.00 | 2:56.45 | 118050 | 131294
11 | 29:10.45 | 3:57.17 | 131295 | 149086
12 | 33:07.62 | 2:30.13 | 149087 | 160349 Характеристики диапазона извлечения и сообщения об ошибках

Выбранный диапазон

Имя файла G:eMule архивыLORD SUTCH And Heavy Friends (Page Bonham Beck Hopkins covers) george moscowLORD SUTCH & Heavy Friends - 70 Lord Sutch & Heavy Friends.wav

Пиковый уровень 100.0 %
Качество диапазона 100.0 %
CRC копии 3B314A87
Копирование... OK

Ошибок не произошло


AccurateRip: сводка

Трек 1 нет в базе данных
Трек 2 нет в базе данных
Трек 3 нет в базе данных
Трек 4 нет в базе данных
Трек 5 нет в базе данных
Трек 6 нет в базе данных
Трек 7 нет в базе данных
Трек 8 нет в базе данных
Трек 9 нет в базе данных
Трек 10 нет в базе данных
Трек 11 нет в базе данных
Трек 12 нет в базе данных

Ни одного трека нет в базе AccurateRip

Конец отчёта

DR Log
foobar2000 1.2.9 / Dynamic Range Meter 1.1.1
log date: 2015-05-25 20:38:09

--------------------------------------------------------------------------------
Analyzed: LORD SUTCH & Heavy Friends / 70 Lord Sutch & Heavy Friends
--------------------------------------------------------------------------------

DR Peak RMS Duration Track
--------------------------------------------------------------------------------
DR11 -1.54 dB -15.75 dB 2:40 01-Wailing Sounds
DR12 -1.31 dB -16.60 dB 2:47 02-Cause I Love You
DR12 -0.12 dB -14.62 dB 3:14 03-Flashing Lights
DR10 -3.04 dB -15.63 dB 2:35 04-Gutty Guitar
DR12 -2.04 dB -16.02 dB 3:21 05-Would You Believe
DR12 0.00 dB -15.26 dB 2:39 06-Smoke & Fire
DR12 -0.12 dB -14.20 dB 3:07 07-Thumping Beat
DR12 0.00 dB -14.76 dB 3:05 08-Union Jack Car
DR13 -1.36 dB -17.35 dB 2:46 09-One For You Baby
DR12 -1.61 dB -16.54 dB 2:57 10-LONDON
DR12 -1.23 dB -16.46 dB 3:57 11-Brightest Light
DR12 -1.62 dB -16.22 dB 2:30 12-Baby Come Back
--------------------------------------------------------------------------------

Number of tracks: 12
Official DR value: DR12

Samplerate: 44100 Hz
Channels: 2
Bits per sample: 16
Bitrate: 834 kbps
Codec: FLAC

CUETools Log
[CUETools log; Date: 25.05.2015 20:38:32; Version: 2.1.4]
[CTDB TOCID: tjVC05aJoJ58MNR9ae9EBSeSccM-] found.
Track | CTDB Status
1 | (2/2) Accurately ripped
2 | (2/2) Accurately ripped
3 | (2/2) Accurately ripped
4 | (2/2) Accurately ripped
5 | (2/2) Accurately ripped
6 | (2/2) Accurately ripped
7 | (2/2) Accurately ripped
8 | (2/2) Accurately ripped
9 | (2/2) Accurately ripped
10 | (2/2) Accurately ripped
11 | (2/2) Accurately ripped
12 | (2/2) Accurately ripped
[AccurateRip ID: 000fa65f-0092e4f5-ac085a0c] found.
Track [ CRC | V2 ] Status
01 [66073449|5c3e7e7d] (4+0/4) Accurately ripped
02 [7201d207|77434518] (4+0/4) Accurately ripped
03 [f1b38a8a|a13ae2c6] (4+0/4) Accurately ripped
04 [e0df3f89|ded01fa6] (4+0/4) Accurately ripped
05 [08f67fe7|cdc9370d] (4+0/4) Accurately ripped
06 [b223deba|54535841] (4+0/4) Accurately ripped
07 [47f340a6|ecc301cf] (4+0/4) Accurately ripped
08 [1f9fc481|b272cbb0] (4+0/4) Accurately ripped
09 [6ed0c8e4|d2b6bde5] (4+0/4) Accurately ripped
10 [b158c6bb|839a4b56] (4+0/4) Accurately ripped
11 [29e85d93|09f71f9e] (4+0/4) Accurately ripped
12 [2411a6eb|b192dc30] (4+0/4) Accurately ripped

Track Peak [ CRC32 ] [W/O NULL] [ LOG ]
-- 100,0 [D518F3D9] [3B314A87] W/O NULL
01 83,7 [D09C41BE] [01A91266]
02 86,0 [347FB14B] [924E5DA2]
03 98,6 [F75A5513] [31A8C3EB]
04 70,5 [943B6A62] [C0CB5C8D]
05 79,0 [24B9A17B] [B973C9CF]
06 100,0 [AEBF6C9F] [23C971E4]
07 98,6 [25DE568F] [D87A6A9D]
08 100,0 [EB0A079D] [A1110BE4]
09 85,5 [C5BC2B99] [AE18DFC0]
10 83,0 [67FAA8D2] [323D171A]
11 86,7 [989B86AE] [D8384892]
12 83,0 [665B00E6] [C42AF563]

Lord Sutch And Heavy Friends - Lord Sutch And Heavy Friends (1970) back

All thanks go to george moscow

More Lord Sutch And Heavy Friends on AH

Download Lord Sutch And Heavy Friends - Lord Sutch And Heavy Friends (1970):



Free Full Download {title limit="40"} form MediaFire, Uploaded.to, Zippyshare, FileSonic, turbobit.net, ul.to, ORON, DepositFiles, rapidgator.net, letitbit.net, extabit.com, filefactory.com. {title limit="40"} Torrent Download with keygen, crack, serial, dvdrip, 1024, 2016, HD, 720p, 2015
290
      
Rating:
(votes: 0)

Reviews -
0