Login
» » Jimi Hendrix Experience - Freedom: Atlanta Pop Festival (2015) 2CD

Jimi Hendrix Experience - Freedom: Atlanta Pop Festival (2015) 2CD


Jimi Hendrix Experience - Freedom: Atlanta Pop Festival (2015) 2CD
EAC | FLAC | Tracks (Cue&Log) ~ 533 Mb (incl 5%) | Scans ~ 187 Mb | Time: 01:22:07
Genre: Rock, Blues Rock, Acid Rock, Psychedelic | Label: Experience Hendrix, Legacy | # 88875109222

Jimi Hendrix's headlining appearance at the Atlanta Pop Festival would be the largest U.S. audience he would ever play to. Most people assume it was Woodstock, which was a larger festival, but by the time Jimi took the stage at around 9 a.m. on Monday morning, the Woodstock crowd was down to about 25,000 stragglers. Estimated between 300,000 and 400,000, the actual crowd at Hendrix's Atlanta Pop performance was hard to pin down due to the fact that many of the festivalgoers turned up after dark, in an effort to stay out of the stifling heat of Atlanta in the summertime. The trio of Jimi, Mitch, and Billy Cox had been touring for about two and a half months solid when July 4 rolled around, and they sound really tight kicking off the show. "Fire" starts the set, and one immediately notices how differently Billy Cox plays it versus Noel Redding. "Spanish Castle Magic" has Jimi trying out some new solo ideas and he really starts feeling it on a very improvisational, extended "Red House." A rare live performance of "Room Full of Mirrors" is followed by an absolutely incredible version of "Hear My Train A Comin'." Jimi is just in amazing form as the ideas just keep coming: the entire solo is so well constructed it could almost be composed. This is a guitar performance nearly equal to "Machine Gun" on Band of Gypsys, and worth the price of admission by itself. After a nice version of "Message to Love," things falter just a bit with Jimi blowing his vocal entrance and muffing some lyrics on "All Along the Watchtower" followed by a good, not great, version of "Freedom." He starts finding his guitar groove again though, and by "Hey Joe" he's once again in excellent form. A solid version of "Voodoo Child (Slight Return)" leads into a really nice extended version of "Stone Free" with some cool new solo ideas. "Star Spangled Banner" is actually punctuated with real fireworks and the set closes with another new song, "Straight Ahead." The music on Freedom: Atlanta Pop Festival has been available in collector's circles for some time, but it has never sounded better than it does here. Despite a brief lull mid-set, the revamped Experience turned in an exciting show on July 4, 1970, and with "Hear My Train A Comin'," Jimi turned in one of the greatest solos of his career.

Review by Sean Westergaard, Allmusic.com





Tracklist:

CD1:

01. Fire (04:40)
02. Lover Man (02:59)
03. Spanish Castle Magic (05:20)
04. Red House (08:27)
05. Room Full of Mirrors (03:18)
06. Hear My Train a Comin' (09:32)
07. Message to Love (04:54)

CD2:

01. All Along the Watchtower (04:19)
02. Freedom (04:05)
03. Foxey Lady (04:29)
04. Purple Haze (04:19)
05. Hey Joe (04:37)
06. Voodoo Child [Slight Return] (07:58)
07. Stone Free (05:25)
08. Star Spangled Banner (02:46)
09. Straight Ahead (04:52)


EAC log CD1
Exact Audio Copy V1.0 beta 6 from 9. April 2015

EAC extraction logfile from 29. August 2015, 8:43

The Jimi Hendrix Experience / Freedom: Atlanta Pop Festival [Live] [Disc 1]

Used drive : HL-DT-STBD-RE GGW-H20L Adapter: 1 ID: 0

Read mode : Secure
Utilize accurate stream : Yes
Defeat audio cache : Yes
Make use of C2 pointers : No

Read offset correction : 667
Overread into Lead-In and Lead-Out : No
Fill up missing offset samples with silence : Yes
Delete leading and trailing silent blocks : No
Null samples used in CRC calculations : Yes
Used interface : Native Win32 interface for Win NT & 2000
Gap handling : Appended to previous track

Used output format : User Defined Encoder
Selected bitrate : 1024 kBit/s
Quality : High
Add ID3 tag : No
Command line compressor : C:Program Files (x86)Exact Audio CopyFlacflac.exe
Additional command line options : -8 -V -T "ARTIST=%artist%" -T "TITLE=%title%" -T "ALBUM=%albumtitle%" -T "DATE=%year%" -T "TRACKNUMBER=%tracknr%" -T "GENRE=%genre%" -T "PERFORMER=%albuminterpret%" -T "COMPOSER=%composer%" %haslyrics%--tag-from-file=LYRICS="%lyricsfile%"%haslyrics% -T "ALBUMARTIST=%albumartist%" -T "ALBUM ARTIST=%albumartist%" -T "DISCNUMBER=%cdnumber%" -T "TOTALDISCS=%totalcds%" -T "TOTALTRACKS=%numtracks%" -T "COMMENT=EAC V1.0 beta 6, Secure Mode, Test & Copy, AccurateRip, FLAC - 8 - oneanight oan" %source% TOC of the extracted CD

Track | Start | Length | Start sector | End sector
---------------------------------------------------------
1 | 0:00.00 | 4:40.59 | 0 | 21058
2 | 4:40.59 | 2:59.11 | 21059 | 34494
3 | 7:39.70 | 5:20.69 | 34495 | 58563
4 | 13:00.64 | 8:27.23 | 58564 | 96611
5 | 21:28.12 | 3:18.60 | 96612 | 111521
6 | 24:46.72 | 9:32.29 | 111522 | 154450
7 | 34:19.26 | 4:54.08 | 154451 | 176508 Track 1

Filename C:oneanight1 - Fire [Live].wav

Pre-gap length 0:00:02.00

Peak level 100.0 %
Extraction speed 4.6 X
Track quality 100.0 %
Test CRC 3314A4CF
Copy CRC 3314A4CF
Track not present in AccurateRip database
Copy OK

Track 2

Filename C:oneanight2 - Lover Man [Live].wav

Peak level 94.4 %
Extraction speed 4.7 X
Track quality 100.0 %
Test CRC 4ED9A851
Copy CRC 4ED9A851
Track not present in AccurateRip database
Copy OK

Track 3

Filename C:oneanight3 - Spanish Castle Magic [Live].wav

Peak level 95.0 %
Extraction speed 5.6 X
Track quality 100.0 %
Test CRC D7E201A8
Copy CRC D7E201A8
Track not present in AccurateRip database
Copy OK

Track 4

Filename C:oneanight4 - Red House [Live].wav

Peak level 95.9 %
Extraction speed 6.0 X
Track quality 99.9 %
Test CRC 94DF1CCE
Copy CRC 94DF1CCE
Track not present in AccurateRip database
Copy OK

Track 5

Filename C:oneanight5 - Room Full of Mirrors [Live].wav

Peak level 94.4 %
Extraction speed 6.3 X
Track quality 100.0 %
Test CRC AB1F2042
Copy CRC AB1F2042
Track not present in AccurateRip database
Copy OK

Track 6

Filename C:oneanight6 - Hear My Train a Comin' [Live].wav

Peak level 94.5 %
Extraction speed 7.8 X
Track quality 100.0 %
Test CRC 8EF4F5D0
Copy CRC 8EF4F5D0
Track not present in AccurateRip database
Copy OK

Track 7

Filename C:oneanight7 - Message to Love [Live].wav

Peak level 94.6 %
Extraction speed 7.8 X
Track quality 100.0 %
Test CRC AE206F2C
Copy CRC AE206F2C
Track not present in AccurateRip database
Copy OK None of the tracks are present in the AccurateRip database

No errors occurred

End of status report

---- CUETools DB Plugin V2.1.6

[CTDB TOCID: eaJwtMzf6DujBDOJ42YOjT5Ajts-] found
Submit result: eaJwtMzf6DujBDOJ42YOjT5Ajts- has been confirmed
Track | CTDB Status
1 | (5/5) Accurately ripped
2 | (5/5) Accurately ripped
3 | (5/5) Accurately ripped
4 | (5/5) Accurately ripped
5 | (5/5) Accurately ripped
6 | (5/5) Accurately ripped
7 | (5/5) Accurately ripped ==== Log checksum 98F2BFA638C4735C5ED281D561E06DEFD8AE917DACDBDA5CB8E40C858E337C09 ====

DR log CD1
foobar2000 1.3.1 / Dynamic Range Meter 1.1.0

log date: 2015-08-30 11:59:46
--------------------------------------------------------------------------------

Analyzed: The Jimi Hendrix Experience / Freedom: Atlanta Pop Festival [Live] [Disc 1]

--------------------------------------------------------------------------------
DR Peak RMS Duration Track

--------------------------------------------------------------------------------

DR12 0.00 dB -14.24 dB 4:41 01-Fire [Live]

DR12 -0.49 dB -13.65 dB 2:59 02-Lover Man [Live]

DR12 -0.44 dB -13.56 dB 5:21 03-Spanish Castle Magic [Live]

DR13 -0.36 dB -15.39 dB 8:27 04-Red House [Live]

DR12 -0.49 dB -14.26 dB 3:19 05-Room Full of Mirrors [Live]

DR13 -0.49 dB -14.62 dB 9:32 06-Hear My Train a Comin' [Live]

DR12 -0.48 dB -13.83 dB 4:54 07-Message to Love [Live]

--------------------------------------------------------------------------------
Number of tracks: 7

Official DR value: DR12
Samplerate: 44100 Hz

Channels: 2

Bits per sample: 16

Bitrate: 854 kbps

Codec: FLAC

================================================================================


EAC log CD2
Exact Audio Copy V1.0 beta 6 from 9. April 2015

EAC extraction logfile from 29. August 2015, 9:10

The Jimi Hendrix Experience / Freedom: Atlanta Pop Festival [Live] [Disc 2]

Used drive : HL-DT-STBD-RE GGW-H20L Adapter: 1 ID: 0

Read mode : Secure
Utilize accurate stream : Yes
Defeat audio cache : Yes
Make use of C2 pointers : No

Read offset correction : 667
Overread into Lead-In and Lead-Out : No
Fill up missing offset samples with silence : Yes
Delete leading and trailing silent blocks : No
Null samples used in CRC calculations : Yes
Used interface : Native Win32 interface for Win NT & 2000
Gap handling : Appended to previous track

Used output format : User Defined Encoder
Selected bitrate : 1024 kBit/s
Quality : High
Add ID3 tag : No
Command line compressor : C:Program Files (x86)Exact Audio CopyFlacflac.exe
Additional command line options : -8 -V -T "ARTIST=%artist%" -T "TITLE=%title%" -T "ALBUM=%albumtitle%" -T "DATE=%year%" -T "TRACKNUMBER=%tracknr%" -T "GENRE=%genre%" -T "PERFORMER=%albuminterpret%" -T "COMPOSER=%composer%" %haslyrics%--tag-from-file=LYRICS="%lyricsfile%"%haslyrics% -T "ALBUMARTIST=%albumartist%" -T "ALBUM ARTIST=%albumartist%" -T "DISCNUMBER=%cdnumber%" -T "TOTALDISCS=%totalcds%" -T "TOTALTRACKS=%numtracks%" -T "COMMENT=EAC V1.0 beta 6, Secure Mode, Test & Copy, AccurateRip, FLAC - 8 - oneanight oan" %source% TOC of the extracted CD

Track | Start | Length | Start sector | End sector
---------------------------------------------------------
1 | 0:00.00 | 4:19.40 | 0 | 19464
2 | 4:19.40 | 4:05.16 | 19465 | 37855
3 | 8:24.56 | 4:29.64 | 37856 | 58094
4 | 12:54.45 | 4:19.24 | 58095 | 77543
5 | 17:13.69 | 4:37.19 | 77544 | 98337
6 | 21:51.13 | 7:58.49 | 98338 | 134236
7 | 29:49.62 | 5:25.00 | 134237 | 158611
8 | 35:14.62 | 2:46.57 | 158612 | 171118
9 | 38:01.44 | 4:52.03 | 171119 | 193021 Track 1

Filename C:oneanight1 - All Along the Watchtower [Live].wav

Pre-gap length 0:00:02.00

Peak level 98.0 %
Extraction speed 4.5 X
Track quality 100.0 %
Test CRC 23889762
Copy CRC 23889762
Track not present in AccurateRip database
Copy OK

Track 2

Filename C:oneanight2 - Freedom [Live].wav

Peak level 94.5 %
Extraction speed 5.0 X
Track quality 100.0 %
Test CRC BD2E15D0
Copy CRC BD2E15D0
Track not present in AccurateRip database
Copy OK

Track 3

Filename C:oneanight3 - Foxey Lady [Live].wav

Peak level 94.6 %
Extraction speed 5.5 X
Track quality 100.0 %
Test CRC DB65935C
Copy CRC DB65935C
Track not present in AccurateRip database
Copy OK

Track 4

Filename C:oneanight4 - Purple Haze [Live].wav

Peak level 94.2 %
Extraction speed 5.0 X
Track quality 99.9 %
Test CRC 68B86831
Copy CRC 68B86831
Track not present in AccurateRip database
Copy OK

Track 5

Filename C:oneanight5 - Hey Joe [Live].wav

Peak level 95.4 %
Extraction speed 6.5 X
Track quality 100.0 %
Test CRC 94723314
Copy CRC 94723314
Track not present in AccurateRip database
Copy OK

Track 6

Filename C:oneanight6 - Voodoo Child [Slight Return] [Live].wav

Peak level 94.8 %
Extraction speed 7.3 X
Track quality 100.0 %
Test CRC 579D3CCF
Copy CRC 579D3CCF
Track not present in AccurateRip database
Copy OK

Track 7

Filename C:oneanight7 - Stone Free [Live].wav

Peak level 94.0 %
Extraction speed 6.5 X
Track quality 99.9 %
Test CRC 17169770
Copy CRC 17169770
Track not present in AccurateRip database
Copy OK

Track 8

Filename C:oneanight8 - Star Spangled Banner [Live].wav

Peak level 82.4 %
Extraction speed 7.2 X
Track quality 100.0 %
Test CRC B8E9F059
Copy CRC B8E9F059
Track not present in AccurateRip database
Copy OK

Track 9

Filename C:oneanight9 - Straight Ahead [Live].wav

Peak level 95.8 %
Extraction speed 8.1 X
Track quality 100.0 %
Test CRC 613E0909
Copy CRC 613E0909
Track not present in AccurateRip database
Copy OK None of the tracks are present in the AccurateRip database

No errors occurred

End of status report

---- CUETools DB Plugin V2.1.6

[CTDB TOCID: TbfdErf5tzyrvj3T4qwLR20p9Pg-] found
Submit result: TbfdErf5tzyrvj3T4qwLR20p9Pg- has been confirmed
Track | CTDB Status
1 | (5/5) Accurately ripped
2 | (5/5) Accurately ripped
3 | (5/5) Accurately ripped
4 | (5/5) Accurately ripped
5 | (5/5) Accurately ripped
6 | (5/5) Accurately ripped
7 | (5/5) Accurately ripped
8 | (5/5) Accurately ripped
9 | (5/5) Accurately ripped ==== Log checksum D6F579EFB61F766D296899F51EBE40C4B891C6F3EEE13EE9D742C85A73FED353 ====

DR log CD2
foobar2000 1.3.1 / Dynamic Range Meter 1.1.0

log date: 2015-08-30 11:59:30
--------------------------------------------------------------------------------

Analyzed: The Jimi Hendrix Experience / Freedom: Atlanta Pop Festival [Live] [Disc 2]

--------------------------------------------------------------------------------
DR Peak RMS Duration Track

--------------------------------------------------------------------------------

DR12 -0.17 dB -13.69 dB 4:20 01-All Along the Watchtower [Live]

DR12 -0.49 dB -14.18 dB 4:05 02-Freedom [Live]

DR11 -0.48 dB -13.38 dB 4:30 03-Foxey Lady [Live]

DR12 -0.51 dB -13.82 dB 4:19 04-Purple Haze [Live]

DR12 -0.41 dB -14.05 dB 4:37 05-Hey Joe [Live]

DR11 -0.46 dB -13.99 dB 7:59 06-Voodoo Child [Slight Return] [Live]

DR12 -0.54 dB -13.18 dB 5:25 07-Stone Free [Live]

DR12 -1.67 dB -16.07 dB 2:47 08-Star Spangled Banner [Live]

DR12 -0.36 dB -13.47 dB 4:52 09-Straight Ahead [Live]

--------------------------------------------------------------------------------
Number of tracks: 9

Official DR value: DR12
Samplerate: 44100 Hz

Channels: 2

Bits per sample: 16

Bitrate: 906 kbps

Codec: FLAC

================================================================================



All thanks to original releaser - oneanight






Free Full Download {title limit="40"} form MediaFire, Uploaded.to, Zippyshare, FileSonic, turbobit.net, ul.to, ORON, DepositFiles, rapidgator.net, letitbit.net, extabit.com, filefactory.com. {title limit="40"} Torrent Download with keygen, crack, serial, dvdrip, 1024, 2016, HD, 720p, 2015
411
      
Rating:
(votes: 0)

Reviews -
0