Login
» » VA - Christmas! The Complete Songbook (2014)

VA - Christmas! The Complete Songbook (2014)


VA - Christmas! The Complete Songbook (2014)
EAC | FLAC | Tracks (Cue & Log) ~ 819 mb | MP3 320 kbps CBR ~ 335 mb | Scans included | 126 min
Pop, Jazz, Easy Listening, Holiday, Christmas | Label: Music Brokers | Rel: 2014

Christmas is one of the most special times of the year. We gather with our loved ones with a sense of harmony and willing to share good times. To achieve this special ambiance, music is essential. This wonderful triple album is perfect to liven up that special moment, as it’s a collection completely different to those that are usually found in stores. With an unparalleled selection of artists, including an exclusive collaboration between Rick Astley & Kim Wilde, the great Don McLean (creator of American Pie), the hitmaker duo Hue & Cry, immortal classics such as Frank Sinatra or rock pioneers Iggy Pop, all presented here with superb versions of holiday classics. To bring a contemporary feel, CD 3 contains chill out/lounge versions of well know Christmas hits performed with a remarkable elegance.

Tracklist:

CD1 - A Christmas Full Of Stars:

01. Kim Wilde & Rick Astley - Winter Wonderland (2:47)
02. Hue & Cry - Santa Claus Is Coming To Town (3:47)
03. Don McLean - Oh Little Town Of Bethlehem (3:51)
04. Glenn Campbell - Have Yourself A Merry Little Christmas (4:18)
05. Frank Sinatra - Christmas Dreaming (A Little Early This Year) (3:00)
06. Louis Armstrong - Zat You, Santa Claus (2:49)
07. Maria Muldaur - Merry Christmas, Baby (2:52)
08. Bobby Kimball (Toto) - Please, Come Home For Christmas (3:02)
09. Air Supply - Feed The World (Do They Know It's Christmas) (3:53)
10. Leif Garrett - Merry Xmas Everybody (3:53)
11. B.J.Thomas - I'll Be Home For Christmas (3:46)
12. Crystal Gayle - The Christmas Song (3:28)
13. Billy Vaughn - The First Noel (1:30)
14. Iggy Pop - White Christmas (3:32)

EAC log CD1
Exact Audio Copy V1.0 beta 3 from 29. August 2011

EAC extraction logfile from 9. November 2015, 20:59

Various Artists / Christmas! The Complete Songbook - Disc One - A Christmas Full Of Stars

Used drive : Optiarc DVD RW AD-7241S Adapter: 5 ID: 1

Read mode : Secure
Utilize accurate stream : Yes
Defeat audio cache : Yes
Make use of C2 pointers : No

Read offset correction : 48
Overread into Lead-In and Lead-Out : No
Fill up missing offset samples with silence : Yes
Delete leading and trailing silent blocks : No
Null samples used in CRC calculations : Yes
Used interface : Native Win32 interface for Win NT & 2000
Gap handling : Appended to previous track

Used output format : User Defined Encoder
Selected bitrate : 1024 kBit/s
Quality : High
Add ID3 tag : No
Command line compressor : C:Program FilesEAC1.3Flacflac.exe
Additional command line options : -8 -V -T "ARTIST=%artist%" -T "TITLE=%title%" -T "ALBUM=%albumtitle%" -T "DATE=%year%" -T "TRACKNUMBER=%tracknr%" -T "TOTALTRACKS=%numtracks%" -T "GENRE=%genre%" -T "ALBUMARTIST=%albumartist%" -T "ALBUM ARTIST=%albumartist%" -T "COMMENT=EAC Secure Mode, Test & Copy, AccurateRip, FLAC -8" %source% TOC of the extracted CD

Track | Start | Length | Start sector | End sector
---------------------------------------------------------
1 | 0:00.00 | 2:46.62 | 0 | 12511
2 | 2:46.62 | 3:47.25 | 12512 | 29561
3 | 6:34.12 | 3:50.62 | 29562 | 46873
4 | 10:24.74 | 4:17.50 | 46874 | 66198
5 | 14:42.49 | 2:59.62 | 66199 | 79685
6 | 17:42.36 | 2:49.25 | 79686 | 92385
7 | 20:31.61 | 2:51.57 | 92386 | 105267
8 | 23:23.43 | 3:01.62 | 105268 | 118904
9 | 26:25.30 | 3:53.37 | 118905 | 136416
10 | 30:18.67 | 3:53.12 | 136417 | 153903
11 | 34:12.04 | 3:45.50 | 153904 | 170828
12 | 37:57.54 | 3:28.00 | 170829 | 186428
13 | 41:25.54 | 1:30.34 | 186429 | 193212
14 | 42:56.13 | 3:32.15 | 193213 | 209127 Track 1

Filename C:EACcd1 - Kim Wilde & Rick Astley - Winter Wonderland.wav

Pre-gap length 0:00:02.00

Peak level 100.0 %
Extraction speed 2.1 X
Track quality 100.0 %
Test CRC EDF6C024
Copy CRC EDF6C024
Accurately ripped (confidence 1) [702A02BF] (AR v2)
Copy OK

Track 2

Filename C:EACcd2 - Hue & Cry - Santa Claus Is Coming To Town.wav

Peak level 100.0 %
Extraction speed 2.4 X
Track quality 100.0 %
Test CRC 7FACA200
Copy CRC 7FACA200
Accurately ripped (confidence 1) [F9FC77E6] (AR v2)
Copy OK

Track 3

Filename C:EACcd3 - Don McLean - Oh Little Town Of Bethlehem.wav

Peak level 90.0 %
Extraction speed 2.7 X
Track quality 100.0 %
Test CRC EDDF30FC
Copy CRC EDDF30FC
Accurately ripped (confidence 1) [5A041913] (AR v2)
Copy OK

Track 4

Filename C:EACcd4 - Glenn Campbell - Have Yourself A Merry Little Christmas.wav

Peak level 100.0 %
Extraction speed 3.0 X
Track quality 100.0 %
Test CRC 4C1EE875
Copy CRC 4C1EE875
Accurately ripped (confidence 1) [812B4B79] (AR v2)
Copy OK

Track 5

Filename C:EACcd5 - Frank Sinatra - Christmas Dreaming (A Little Early This Year).wav

Peak level 100.0 %
Extraction speed 3.0 X
Track quality 100.0 %
Test CRC BE4764B7
Copy CRC BE4764B7
Accurately ripped (confidence 1) [5D642354] (AR v2)
Copy OK

Track 6

Filename C:EACcd6 - Louis Armstrong - Zat You, Santa Claus.wav

Peak level 100.0 %
Extraction speed 2.6 X
Track quality 99.9 %
Test CRC B7E56E89
Copy CRC B7E56E89
Accurately ripped (confidence 1) [3434E8B1] (AR v2)
Copy OK

Track 7

Filename C:EACcd7 - Maria Muldaur - Merry Christmas, Baby.wav

Peak level 100.0 %
Extraction speed 2.7 X
Track quality 99.9 %
Test CRC DB694995
Copy CRC DB694995
Accurately ripped (confidence 1) [F81E863E] (AR v2)
Copy OK

Track 8

Filename C:EACcd8 - Bobby Kimball (Toto) - Please, Come Home For Christmas.wav

Peak level 100.0 %
Extraction speed 2.1 X
Track quality 99.8 %
Test CRC 1CA77308
Copy CRC 1CA77308
Accurately ripped (confidence 1) [729A1619] (AR v2)
Copy OK

Track 9

Filename C:EACcd9 - Air Supply - Feed The World (Do They Know It's Christmas).wav

Peak level 100.0 %
Extraction speed 3.7 X
Track quality 100.0 %
Test CRC 753ED0E4
Copy CRC 753ED0E4
Accurately ripped (confidence 1) [C283DCB6] (AR v2)
Copy OK

Track 10

Filename C:EACcd10 - Leif Garrett - Merry Xmas Everybody.wav

Peak level 100.0 %
Extraction speed 3.8 X
Track quality 100.0 %
Test CRC 5B899390
Copy CRC 5B899390
Accurately ripped (confidence 1) [F4104444] (AR v2)
Copy OK

Track 11

Filename C:EACcd11 - B.J.Thomas - I'll Be Home For Christmas.wav

Peak level 100.0 %
Extraction speed 2.6 X
Track quality 99.9 %
Test CRC 04311729
Copy CRC 04311729
Accurately ripped (confidence 1) [58E1EEE4] (AR v2)
Copy OK

Track 12

Filename C:EACcd12 - Crystal Gayle - The Christmas Song.wav

Peak level 100.0 %
Extraction speed 4.1 X
Track quality 100.0 %
Test CRC 72DBD1F3
Copy CRC 72DBD1F3
Accurately ripped (confidence 1) [2F352851] (AR v2)
Copy OK

Track 13

Filename C:EACcd13 - Billy Vaughn - The First Noel.wav

Peak level 100.0 %
Extraction speed 3.5 X
Track quality 100.0 %
Test CRC 2B50A421
Copy CRC 2B50A421
Accurately ripped (confidence 1) [2C627788] (AR v2)
Copy OK

Track 14

Filename C:EACcd14 - Iggy Pop - White Christmas.wav

Peak level 82.1 %
Extraction speed 4.2 X
Track quality 100.0 %
Test CRC 84C00ECC
Copy CRC 84C00ECC
Accurately ripped (confidence 1) [D8652A1F] (AR v2)
Copy OK All tracks accurately ripped

No errors occurred

End of status report

---- CUETools DB Plugin V2.1.3

[CTDB TOCID: h7_kKRNVEPaUsAENaWmbVijHWPw-] found, Submit result: already submitted
[aff4a915] (2/2) Accurately ripped ==== Log checksum AFE785D76F44BA4E1E5E8F8F518FE529E5B71CCB8C733EE2132233C9345DD35B ====


CD2 - The Classic Songs:

01. Brenda Lee - Silent Night (4:00)
02. Merle Haggard - Santa Claus And Popcorn (2:14)
03. Gilbert O'Sullivan - Christmas Song (2:45)
04. The Three Degrees - Winter Wonderland (3:26)
05. The Cranberry Singers - Mary's Boy Child (3:06)
06. Brook Benton - Merry Christmas All (2:35)
07. The Drifters - Christmas Just Ain't Christmas (2:36)
08. The Platters - Blue Christmas (1:58)
09. Charles Brown - Merry Christmas, Baby (3:00)
10. Willie Nelson - Pretty Paper (3:40)
11. Waylon Jennings - Away In A Manger (3:03)
12. Louis Armstrong - White Christmas (2:38)
13. Rosemary Clooney - Little Drummer Boy (2:30)
14. Porter Wagoner - We Wish You A Merry Christmas (1:58)

EAC log CD2
Exact Audio Copy V1.0 beta 3 from 29. August 2011

EAC extraction logfile from 9. November 2015, 21:31

Various Artists / Christmas! The Complete Songbook - Disc Two - The Classic Songs

Used drive : Optiarc DVD RW AD-7241S Adapter: 5 ID: 1

Read mode : Secure
Utilize accurate stream : Yes
Defeat audio cache : Yes
Make use of C2 pointers : No

Read offset correction : 48
Overread into Lead-In and Lead-Out : No
Fill up missing offset samples with silence : Yes
Delete leading and trailing silent blocks : No
Null samples used in CRC calculations : Yes
Used interface : Native Win32 interface for Win NT & 2000
Gap handling : Appended to previous track

Used output format : User Defined Encoder
Selected bitrate : 1024 kBit/s
Quality : High
Add ID3 tag : No
Command line compressor : C:Program FilesEAC1.3Flacflac.exe
Additional command line options : -8 -V -T "ARTIST=%artist%" -T "TITLE=%title%" -T "ALBUM=%albumtitle%" -T "DATE=%year%" -T "TRACKNUMBER=%tracknr%" -T "TOTALTRACKS=%numtracks%" -T "GENRE=%genre%" -T "ALBUMARTIST=%albumartist%" -T "ALBUM ARTIST=%albumartist%" -T "COMMENT=EAC Secure Mode, Test & Copy, AccurateRip, FLAC -8" %source% TOC of the extracted CD

Track | Start | Length | Start sector | End sector
---------------------------------------------------------
1 | 0:00.00 | 4:00.00 | 0 | 17999
2 | 4:00.00 | 2:14.00 | 18000 | 28049
3 | 6:14.00 | 2:44.67 | 28050 | 40416
4 | 8:58.67 | 3:26.00 | 40417 | 55866
5 | 12:24.67 | 3:05.45 | 55867 | 69786
6 | 15:30.37 | 2:34.60 | 69787 | 81396
7 | 18:05.22 | 2:36.15 | 81397 | 93111
8 | 20:41.37 | 1:58.30 | 93112 | 101991
9 | 22:39.67 | 2:59.67 | 101992 | 115483
10 | 25:39.59 | 3:40.37 | 115484 | 132020
11 | 29:20.21 | 3:03.07 | 132021 | 145752
12 | 32:23.28 | 2:37.52 | 145753 | 157579
13 | 35:01.05 | 2:30.00 | 157580 | 168829
14 | 37:31.05 | 1:57.45 | 168830 | 177649 Track 1

Filename C:EACcd1 - Brenda Lee - Silent Night.wav

Pre-gap length 0:00:02.00

Peak level 100.0 %
Extraction speed 2.0 X
Track quality 99.9 %
Test CRC 843142B5
Copy CRC 843142B5
Accurately ripped (confidence 1) [EABB5FC3] (AR v2)
Copy OK

Track 2

Filename C:EACcd2 - Merle Haggard - Santa Claus And Popcorn.wav

Peak level 100.0 %
Extraction speed 2.2 X
Track quality 100.0 %
Test CRC 76EF637B
Copy CRC 76EF637B
Accurately ripped (confidence 1) [4E2EA7AF] (AR v2)
Copy OK

Track 3

Filename C:EACcd3 - Gilbert O'Sullivan - Christmas Song.wav

Peak level 100.0 %
Extraction speed 2.5 X
Track quality 100.0 %
Test CRC 27791A51
Copy CRC 27791A51
Accurately ripped (confidence 1) [16105839] (AR v2)
Copy OK

Track 4

Filename C:EACcd4 - The Three Degrees - Winter Wonderland.wav

Peak level 100.0 %
Extraction speed 2.8 X
Track quality 100.0 %
Test CRC 5255CF2C
Copy CRC 5255CF2C
Accurately ripped (confidence 1) [94FFAA78] (AR v2)
Copy OK

Track 5

Filename C:EACcd5 - The Cranberry Singers - Mary's Boy Child.wav

Peak level 100.0 %
Extraction speed 2.5 X
Track quality 99.9 %
Test CRC 045F605D
Copy CRC 045F605D
Accurately ripped (confidence 1) [AA5CE197] (AR v2)
Copy OK

Track 6

Filename C:EACcd6 - Brook Benton - Merry Christmas All.wav

Peak level 100.0 %
Extraction speed 2.9 X
Track quality 100.0 %
Test CRC E37AA5AE
Copy CRC E37AA5AE
Accurately ripped (confidence 1) [3A558B0E] (AR v2)
Copy OK

Track 7

Filename C:EACcd7 - The Drifters - Christmas Just Ain't Christmas.wav

Peak level 100.0 %
Extraction speed 3.1 X
Track quality 100.0 %
Test CRC 3DCEE8A0
Copy CRC 3DCEE8A0
Accurately ripped (confidence 1) [39315B3A] (AR v2)
Copy OK

Track 8

Filename C:EACcd8 - The Platters - Blue Christmas.wav

Peak level 100.0 %
Extraction speed 3.0 X
Track quality 100.0 %
Test CRC AAA934B8
Copy CRC AAA934B8
Accurately ripped (confidence 1) [7064128B] (AR v2)
Copy OK

Track 9

Filename C:EACcd9 - Charles Brown - Merry Christmas, Baby.wav

Peak level 100.0 %
Extraction speed 2.9 X
Track quality 99.9 %
Test CRC F8A5693F
Copy CRC F8A5693F
Accurately ripped (confidence 1) [A1D1E7FC] (AR v2)
Copy OK

Track 10

Filename C:EACcd10 - Willie Nelson - Pretty Paper.wav

Peak level 100.0 %
Extraction speed 3.6 X
Track quality 100.0 %
Test CRC B2F31298
Copy CRC B2F31298
Accurately ripped (confidence 1) [ABE6F879] (AR v2)
Copy OK

Track 11

Filename C:EACcd11 - Waylon Jennings - Away In A Manger.wav

Peak level 100.0 %
Extraction speed 3.6 X
Track quality 100.0 %
Test CRC AD922FE7
Copy CRC AD922FE7
Accurately ripped (confidence 1) [90DF7F10] (AR v2)
Copy OK

Track 12

Filename C:EACcd12 - Louis Armstrong - White Christmas.wav

Peak level 100.0 %
Extraction speed 3.0 X
Track quality 99.9 %
Test CRC DB9424F3
Copy CRC DB9424F3
Accurately ripped (confidence 1) [7570CB64] (AR v2)
Copy OK

Track 13

Filename C:EACcd13 - Rosemary Clooney - Little Drummer Boy.wav

Peak level 100.0 %
Extraction speed 3.7 X
Track quality 100.0 %
Test CRC 70033FDB
Copy CRC 70033FDB
Accurately ripped (confidence 1) [1912B1D0] (AR v2)
Copy OK

Track 14

Filename C:EACcd14 - Porter Wagoner - We Wish You A Merry Christmas.wav

Peak level 100.0 %
Extraction speed 3.6 X
Track quality 100.0 %
Test CRC A8B2C000
Copy CRC A8B2C000
Accurately ripped (confidence 1) [B5B4D915] (AR v2)
Copy OK All tracks accurately ripped

No errors occurred

End of status report

---- CUETools DB Plugin V2.1.3

[CTDB TOCID: WOKQy1SNSp6eTkKt6.o8yMAyAkY-] found, Submit result: already submitted
[767279e1] (2/2) Accurately ripped ==== Log checksum F7420AB5D57B5C7ED3430D02D0EA47938CA6734613D9D10F048FA475FBC7C37A ====


CD3 - Christmas Chill Out:

01. Dj Style - Santa Claus Is Coming To Town (After The Rain Mix) (2:28)
02. Pink House & Sylvie - Have Yourself A Merry Little Christmas (3:43)
03. Morgan, G & Christine - Jingle Bells (3:56)
04. Sixth Finger - The Christmas Song (Chestnuts Roasting Mix) (4:02)
05. Amazonics - Winter Wonderland (Vintervarld Bossa Remix) (2:40)
06. Urban Love - Let It Snow! Let It Snow! Let It Snow! (2:46)
07. Hypnomusic - O Come, All Ye Faithful (Cantus Diversi Mix) (2:53)
08. Space Gang - Christmas (Baby Please Come Home) (3:41)
09. Natascha - Silent Night (Rxmas Edit) (3:18)
10. Groovy Waters - The Little Drummer Boy (3:16)
11. Natalie Renoir - I'll Be Home For Christmas (Sweet Breeze Mix) (3:43)
12. Ituana & Sixth Finger - White Christmas (3:15)
13. Icicles & Snowflakes - Outro (1:00)

EAC log CD3
Exact Audio Copy V1.0 beta 3 from 29. August 2011

EAC extraction logfile from 8. November 2015, 23:42

Various Artists / Christmas! The Complete Songbook - Disc Three - Christmas Chill Out

Used drive : Optiarc DVD RW AD-7241S Adapter: 5 ID: 1

Read mode : Secure
Utilize accurate stream : Yes
Defeat audio cache : Yes
Make use of C2 pointers : No

Read offset correction : 48
Overread into Lead-In and Lead-Out : No
Fill up missing offset samples with silence : Yes
Delete leading and trailing silent blocks : No
Null samples used in CRC calculations : Yes
Used interface : Native Win32 interface for Win NT & 2000
Gap handling : Appended to previous track

Used output format : User Defined Encoder
Selected bitrate : 1024 kBit/s
Quality : High
Add ID3 tag : No
Command line compressor : C:Program FilesEAC1.3Flacflac.exe
Additional command line options : -8 -V -T "ARTIST=%artist%" -T "TITLE=%title%" -T "ALBUM=%albumtitle%" -T "DATE=%year%" -T "TRACKNUMBER=%tracknr%" -T "TOTALTRACKS=%numtracks%" -T "GENRE=%genre%" -T "ALBUMARTIST=%albumartist%" -T "ALBUM ARTIST=%albumartist%" -T "COMMENT=EAC Secure Mode, Test & Copy, AccurateRip, FLAC -8" %source% TOC of the extracted CD

Track | Start | Length | Start sector | End sector
---------------------------------------------------------
1 | 0:00.00 | 2:28.28 | 0 | 11127
2 | 2:28.28 | 3:42.39 | 11128 | 27816
3 | 6:10.67 | 3:56.22 | 27817 | 45538
4 | 10:07.14 | 4:02.10 | 45539 | 63698
5 | 14:09.24 | 2:40.17 | 63699 | 75715
6 | 16:49.41 | 2:45.42 | 75716 | 88132
7 | 19:35.08 | 2:52.68 | 88133 | 101100
8 | 22:28.01 | 3:41.11 | 101101 | 117686
9 | 26:09.12 | 3:17.63 | 117687 | 132524
10 | 29:27.00 | 3:15.62 | 132525 | 147211
11 | 32:42.62 | 3:43.36 | 147212 | 163972
12 | 36:26.23 | 3:15.32 | 163973 | 178629
13 | 39:41.55 | 1:00.31 | 178630 | 183160 Track 1

Filename C:EACcd1 - Dj Style - Santa Claus Is Coming To Town (After The Rain Mix).wav

Pre-gap length 0:00:02.00

Peak level 99.7 %
Extraction speed 1.7 X
Track quality 99.9 %
Test CRC D040447D
Copy CRC D040447D
Cannot be verified as accurate (confidence 2) [94D36D84], AccurateRip returned [6241FDF9] (AR v2)
Copy OK

Track 2

Filename C:EACcd2 - Pink House & Sylvie - Have Yourself A Merry Little Christmas.wav

Peak level 99.8 %
Extraction speed 2.4 X
Track quality 100.0 %
Test CRC D12CDA9B
Copy CRC D12CDA9B
Cannot be verified as accurate (confidence 2) [9AB25DCE], AccurateRip returned [1660EAC2] (AR v2)
Copy OK

Track 3

Filename C:EACcd3 - Morgan, G & Christine - Jingle Bells.wav

Peak level 99.7 %
Extraction speed 2.7 X
Track quality 100.0 %
Test CRC 5BD7EEFA
Copy CRC 5BD7EEFA
Cannot be verified as accurate (confidence 2) [CF5F19F2], AccurateRip returned [3B1900F8] (AR v2)
Copy OK

Track 4

Filename C:EACcd4 - Sixth Finger - The Christmas Song (Chestnuts Roasting Mix).wav

Peak level 99.8 %
Extraction speed 2.9 X
Track quality 100.0 %
Test CRC F1AFD86A
Copy CRC F1AFD86A
Cannot be verified as accurate (confidence 2) [5397FE3D], AccurateRip returned [7608DD35] (AR v2)
Copy OK

Track 5

Filename C:EACcd5 - Amazonics - Winter Wonderland (Vintervarld Bossa Remix).wav

Peak level 99.8 %
Extraction speed 2.9 X
Track quality 100.0 %
Test CRC 724147AB
Copy CRC 724147AB
Cannot be verified as accurate (confidence 2) [A956235B], AccurateRip returned [7118D03B] (AR v2)
Copy OK

Track 6

Filename C:EACcd6 - Urban Love - Let It Snow! Let It Snow! Let It Snow!.wav

Peak level 100.0 %
Extraction speed 3.0 X
Track quality 100.0 %
Test CRC C6DAF788
Copy CRC C6DAF788
Cannot be verified as accurate (confidence 2) [1A84FCCB], AccurateRip returned [D25C00DE] (AR v2)
Copy OK

Track 7

Filename C:EACcd7 - Hypnomusic - O Come, All Ye Faithful (Cantus Diversi Mix).wav

Peak level 99.7 %
Extraction speed 3.2 X
Track quality 100.0 %
Test CRC F40164F7
Copy CRC F40164F7
Cannot be verified as accurate (confidence 2) [4CA96F3C], AccurateRip returned [88D67BC8] (AR v2)
Copy OK

Track 8

Filename C:EACcd8 - Space Gang - Christmas (Baby Please Come Home).wav

Peak level 99.9 %
Extraction speed 3.5 X
Track quality 100.0 %
Test CRC 82C0B03E
Copy CRC 82C0B03E
Cannot be verified as accurate (confidence 2) [669E6E91], AccurateRip returned [3AC98D2E] (AR v2)
Copy OK

Track 9

Filename C:EACcd9 - Natascha - Silent Night (Rxmas Edit).wav

Peak level 99.3 %
Extraction speed 3.1 X
Track quality 99.9 %
Test CRC 1864C9FC
Copy CRC 1864C9FC
Cannot be verified as accurate (confidence 2) [47CF5F1F], AccurateRip returned [BADE5EB9] (AR v2)
Copy OK

Track 10

Filename C:EACcd10 - Groovy Waters - The Little Drummer Boy.wav

Peak level 99.8 %
Extraction speed 3.6 X
Track quality 100.0 %
Test CRC 90809494
Copy CRC 90809494
Cannot be verified as accurate (confidence 2) [FF51845D], AccurateRip returned [FE681976] (AR v2)
Copy OK

Track 11

Filename C:EACcd11 - Natalie Renoir - I'll Be Home For Christmas (Sweet Breeze Mix).wav

Peak level 98.8 %
Extraction speed 3.9 X
Track quality 100.0 %
Test CRC 130EF597
Copy CRC 130EF597
Cannot be verified as accurate (confidence 2) [4621AC2F], AccurateRip returned [21C18678] (AR v2)
Copy OK

Track 12

Filename C:EACcd12 - Ituana & Sixth Finger - White Christmas.wav

Peak level 97.4 %
Extraction speed 3.9 X
Track quality 100.0 %
Test CRC 30E23750
Copy CRC 30E23750
Cannot be verified as accurate (confidence 2) [4DD67328], AccurateRip returned [FAA8C107] (AR v2)
Copy OK

Track 13

Filename C:EACcd13 - Icicles & Snowflakes - Outro.wav

Peak level 47.6 %
Extraction speed 2.1 X
Track quality 99.8 %
Test CRC 9340EA80
Copy CRC 9340EA80
Cannot be verified as accurate (confidence 2) [80B8BD00], AccurateRip returned [05015C55] (AR v2)
Copy OK No tracks could be verified as accurate
You may have a different pressing from the one(s) in the database

No errors occurred

End of status report

---- CUETools DB Plugin V2.1.3

[CTDB TOCID: _RAaPVkt4pnTN4JiyU1c5dVIbr4-] found, Submit result: _RAaPVkt4pnTN4JiyU1c5dVIbr4- has been confirmed
[efbbbc49] (1/1) Accurately ripped ==== Log checksum 789EF21A4D03BEFBE2CF3F431FACB94584F6D16E3C7A51F27AA3AFE5A9A7FB2E ====


All thanks to the original uploader: Aurosus




Free Full Download {title limit="40"} form MediaFire, Uploaded.to, Zippyshare, FileSonic, turbobit.net, ul.to, ORON, DepositFiles, rapidgator.net, letitbit.net, extabit.com, filefactory.com. {title limit="40"} Torrent Download with keygen, crack, serial, dvdrip, 1024, 2016, HD, 720p, 2015
585
      
Rating:
(votes: 4)

Reviews -
0