Login
» » Carey & Lurrie Bell - Dynasty (1989)

Carey & Lurrie Bell - Dynasty (1989)


Carey & Lurrie Bell - Dynasty (1989)
Blues | 1cd | EAC Rip | Ape + Cue + Log | covers
JSP JSPCD 276 | rel: 1996 | 375Mb

You have to hear it to believe it. Father & son at their best all Carey & Lurrie Bell should be rated high. I have all of the Carey Bell cd's, his second cd (Last Night) is the only weak one, a great collection for any harp lover. The vocals are also great, Lurrie's guitar is just the style I like, a nice song selection too. ~Amazon

Track listing
01. Brought up the Hard Way (6:00)
02. (I Shoulda Did) What My Mama Tlod Me (4:19)
03. Sail on (5:52)
04. I'll be Your 44 (4:16)
05. The Gladys Shuffle (6:08)
06. I Need You So Bad (3:13)
07. 1215 W Belmont (1:46)
08. Second Hand Man (6:18)
09. New Harp in Town (3:24)
10. Going Back to Louisiana (5:59)
11. No Picks (2:34)
12. I Don't Need No Woman (8:20)
~ (58:09)

eac log:

Exact Audio Copy V0.99 prebeta 4 from 23. January 2008

EAC extraction logfile from 2. June 2010, 18:34

Carey and Lurrie Bell / Dynasty

Used drive : TSSTcorpCDDVDW SH-S222L Adapter: 3 ID: 3

Read mode : Secure
Utilize accurate stream : Yes
Defeat audio cache : Yes
Make use of C2 pointers : No

Read offset correction : 6
Overread into Lead-In and Lead-Out : No
Fill up missing offset samples with silence : Yes
Delete leading and trailing silent blocks : No
Null samples used in CRC calculations : Yes
Used interface : Installed external ASPI interface

Used output format : Monkey's Audio Lossless Encoder v3.99 DLL
Sample format : Normal Lossless Compression TOC of the extracted CD

Track | Start | Length | Start sector | End sector
---------------------------------------------------------
1 | 0:00.00 | 5:59.65 | 0 | 26989
2 | 5:59.65 | 4:18.50 | 26990 | 46389
3 | 10:18.40 | 5:52.32 | 46390 | 72821
4 | 16:10.72 | 4:16.33 | 72822 | 92054
5 | 20:27.30 | 6:08.15 | 92055 | 119669
6 | 26:35.45 | 3:13.02 | 119670 | 134146
7 | 29:48.47 | 1:45.40 | 134147 | 142061
8 | 31:34.12 | 6:18.20 | 142062 | 170431
9 | 37:52.32 | 3:24.30 | 170432 | 185761
10 | 41:16.62 | 5:58.43 | 185762 | 212654
11 | 47:15.30 | 2:33.50 | 212655 | 224179
12 | 49:49.05 | 8:19.47 | 224180 | 261651 Range status and errors

Selected range

Filename M:Carey and Lurrie Bell - Dynasty.ape

Peak level 95.5 %
Range quality 100.0 %
Test CRC 7D61F998
Copy CRC 7D61F998
Copy OK

No errors occurred


AccurateRip summary

Track 1 cannot be verified as accurate (confidence 1) [63A8CD77], AccurateRip returned [378263D4]
Track 2 cannot be verified as accurate (confidence 1) [70A2102C], AccurateRip returned [4CADB11C]
Track 3 cannot be verified as accurate (confidence 1) [E4A35CF2], AccurateRip returned [C6E41FA1]
Track 4 cannot be verified as accurate (confidence 1) [7F314600], AccurateRip returned [9F3A77D9]
Track 5 cannot be verified as accurate (confidence 1) [CE3350B8], AccurateRip returned [0871435B]
Track 6 cannot be verified as accurate (confidence 1) [6B24C801], AccurateRip returned [75FD535D]
Track 7 cannot be verified as accurate (confidence 1) [C6213326], AccurateRip returned [58188C9E]
Track 8 cannot be verified as accurate (confidence 1) [5EFA3CBE], AccurateRip returned [AE63FAB1]
Track 9 cannot be verified as accurate (confidence 1) [374F7214], AccurateRip returned [09E938A9]
Track 10 cannot be verified as accurate (confidence 1) [162B8212], AccurateRip returned [462F92ED]
Track 11 cannot be verified as accurate (confidence 1) [ABD596D8], AccurateRip returned [5EA92568]
Track 12 cannot be verified as accurate (confidence 1) [EFB88931], AccurateRip returned [1757D802]

No tracks could be verified as accurate
You may have a different pressing from the one(s) in the database

End of status report


cuetools report:

[CUETools log; Date: 2015.09.02. 23:09:41; Version: 2.1.5]
[CTDB TOCID: qp__T00tH1dvc5M1nuC2cMOqYHw-] found.
Track | CTDB Status
1 | (2/2) Accurately ripped
2 | (2/2) Accurately ripped
3 | (2/2) Accurately ripped
4 | (2/2) Accurately ripped
5 | (2/2) Accurately ripped
6 | (2/2) Accurately ripped
7 | (2/2) Accurately ripped
8 | (2/2) Accurately ripped
9 | (2/2) Accurately ripped
10 | (2/2) Accurately ripped
11 | (2/2) Accurately ripped
12 | (2/2) Accurately ripped
[AccurateRip ID: 0019c4f1-00ed6fa0-c00da00c] found.
Track [ CRC | V2 ] Status
01 [63a8cd77|d2080938] (0+2/2) Accurately ripped
02 [70a2102c|9ed530cc] (0+2/2) Accurately ripped
03 [e4a35cf2|b9ffc152] (0+2/2) Accurately ripped
04 [7f314600|43529ade] (0+2/2) Accurately ripped
05 [ce3350b8|7ec7f9fd] (0+2/2) Accurately ripped
06 [6b24c801|245cf206] (0+2/2) Accurately ripped
07 [c6213326|c1622f53] (0+2/2) Accurately ripped
08 [5efa3cbe|64750738] (0+2/2) Accurately ripped
09 [374f7214|1d6b5d01] (0+2/2) Accurately ripped
10 [162b8212|35ed2a45] (0+2/2) Accurately ripped
11 [abd596d8|b67a48f2] (0+2/2) Accurately ripped
12 [efb88931|4f652494] (0+2/2) Accurately ripped

Track Peak [ CRC32 ] [W/O NULL] [ LOG ]
-- 95,5 [7D61F998] [D5BFD139] CRC32
01 91,1 [AD296B80] [37ECFDE6]
02 90,5 [B0FFC819] [5B5257F3]
03 91,1 [5F944218] [839044EA]
04 87,0 [516FA6FD] [F38FDE60]
05 95,5 [539CD3A3] [8E2B85F9]
06 91,1 [6891815F] [E3EBECC5]
07 57,6 [CCEE3C99] [FC2DEA8C]
08 74,9 [078EC2A9] [97F24E1D]
09 72,4 [3E1124BF] [C29AD868]
10 61,8 [E59D3F5A] [D587A110]
11 67,8 [471061D7] [10DC4D1B]
12 74,1 [858B3195] [A4932596]


Thx to simbolPS


Uploadable

Yunfile


password: asd


Free Full Download {title limit="40"} form MediaFire, Uploaded.to, Zippyshare, FileSonic, turbobit.net, ul.to, ORON, DepositFiles, rapidgator.net, letitbit.net, extabit.com, filefactory.com. {title limit="40"} Torrent Download with keygen, crack, serial, dvdrip, 1024, 2016, HD, 720p, 2015
452
      
Rating:
(votes: 0)

Reviews -
0