Login
» » Jimmie Vaughan - Do You Get The Blues? (2001/2013)

Jimmie Vaughan - Do You Get The Blues? (2001/2013)


Jimmie Vaughan - Do You Get The Blues? (2001/2013)
EAC Rip | FLAC (Img) + Cue + Log ~ 401 Mb | MP3 CBR320 ~ 131 Mb
Scans (JPG, 400 dpi) ~ 50 Mb | RAR 5% Recovery
Blues | Repertoire Records #REPUK 1176

Released in 2001 by Artemis Records,this was the third solo album from guitarist/singer Jimmie Vaughan, elder brother of the late Stevie Ray. It remained as his last truly solo effort until 2010. Guest stars include blues harmonica legend James Cotton and guitarist Tyrone Vaughan, Jimmie's son now a star in his own right. Track In The Middle Of The Night features Tommy Shannon & Chris Layton of Stevie Ray's band Double Trouble. Jimmie is still very active. He was nominated for Best Traditional Blues Album at the 2011 Grammy Awards and in April 2013 will feature at Eric Clapton's Crossroads Festival.Booklet with authoritative and extensive liner notes written by respected Record Collector journalist Michael Heatley. Expertly remastered by Jon Astley(who has worked on recordings by the Who, Led Zeppelin, George Harrison and many others).
~ Amazon


***************


Track List:

01. Dirty Girl [05:04]
02. Out Of The Shadows [03:50]
03. The Deep End [04:54]
04. Power Of Love [04:01]
05. Without You [06:23]
06. Let Me In [04:47]
07. Don't Let The Sun Set [06:03]
08. Robbin' Me Blind [04:59]
09. Slow Dance Blues [06:28]
10. In The Middle Of The Night [03:09]
11. Planet Bongo [05:20]

EAC Log
Exact Audio Copy V1.0 beta 3 from 29. August 2011

EAC extraction logfile from 3. August 2015, 12:53

Jimmie Vaughan / Do You Get The Blues?

Used drive : PIONEER BD-RW BDR-TD03 Adapter: 0 ID: 1

Read mode : Secure
Utilize accurate stream : Yes
Defeat audio cache : Yes
Make use of C2 pointers : No

Read offset correction : 667
Overread into Lead-In and Lead-Out : No
Fill up missing offset samples with silence : Yes
Delete leading and trailing silent blocks : No
Null samples used in CRC calculations : Yes
Used interface : Native Win32 interface for Win NT & 2000

Used output format : User Defined Encoder
Selected bitrate : 768 kBit/s
Quality : High
Add ID3 tag : No
Command line compressor : C:Program Files (x86)Exact Audio CopyFLACFLAC.EXE
Additional command line options : -6 -V -T "ARTIST=%artist%" -T "TITLE=%title%" -T "ALBUM=%albumtitle%" -T "DATE=%year%" -T "TRACKNUMBER=%tracknr%" -T "GENRE=%genre%" -T "COMMENT=%comment%" -T "BAND=%albuminterpret%" -T "ALBUMARTIST=%albuminterpret%" -T "COMPOSER=%composer%" %haslyrics%--tag-from-file=LYRICS="%lyricsfile%"%haslyrics% -T "DISCNUMBER=%cdnumber%" -T "TOTALDISCS=%totalcds%" -T "TOTALTRACKS=%numtracks%" %hascover%--picture="%coverfile%"%hascover% %source% -o %dest% TOC of the extracted CD

Track | Start | Length | Start sector | End sector
---------------------------------------------------------
1 | 0:00.00 | 5:03.58 | 0 | 22782
2 | 5:03.58 | 3:49.32 | 22783 | 39989
3 | 8:53.15 | 4:53.10 | 39990 | 61974
4 | 13:46.25 | 4:00.42 | 61975 | 80016
5 | 17:46.67 | 6:22.46 | 80017 | 108712
6 | 24:09.38 | 4:46.08 | 108713 | 130170
7 | 28:55.46 | 6:02.34 | 130171 | 157354
8 | 34:58.05 | 4:58.09 | 157355 | 179713
9 | 39:56.14 | 6:27.50 | 179714 | 208788
10 | 46:23.64 | 3:08.32 | 208789 | 222920
11 | 49:32.21 | 5:19.13 | 222921 | 246858 Range status and errors

Selected range

Filename C:UsersDerisDesktopJimvauJimmie Vaughan - Do You Get The Blues.wav

Peak level 99.7 %
Extraction speed 4.7 X
Range quality 99.9 %
Test CRC 9382F90C
Copy CRC 9382F90C
Copy OK

No errors occurred


AccurateRip summary

Track 1 accurately ripped (confidence 1) [474EB8E1] (AR v2)
Track 2 accurately ripped (confidence 1) [1AC68549] (AR v2)
Track 3 accurately ripped (confidence 1) [A5237A1F] (AR v2)
Track 4 accurately ripped (confidence 1) [A9BDE508] (AR v2)
Track 5 accurately ripped (confidence 1) [B4C660BA] (AR v2)
Track 6 accurately ripped (confidence 1) [216CB4C3] (AR v2)
Track 7 accurately ripped (confidence 1) [F982F6F9] (AR v2)
Track 8 accurately ripped (confidence 1) [D567FD4D] (AR v2)
Track 9 accurately ripped (confidence 1) [790E57C0] (AR v2)
Track 10 accurately ripped (confidence 1) [5F61A18F] (AR v2)
Track 11 accurately ripped (confidence 1) [946A7DFE] (AR v2)

All tracks accurately ripped

End of status report

---- CUETools DB Plugin V2.1.3

[CTDB TOCID: TDsnNGwhlvUorpRHPXK3MKaZhSE-] disk not present in database, Submit result: TDsnNGwhlvUorpRHPXK3MKaZhSE- has been uploaded ==== Log checksum 9A887886E21C42E515AE2517EFFCCADF02F70FEDFCCF7E4CC41D5F5383F5D07A ====

DR Log
foobar2000 1.2.6 / Dynamic Range Meter 1.1.1
log date: 2015-08-06 15:51:06

--------------------------------------------------------------------------------
Analyzed: Jimmie Vaughan / Do You Get The Blues?
--------------------------------------------------------------------------------

DR Peak RMS Duration Track
--------------------------------------------------------------------------------
DR8 -0.02 dB -9.02 dB 5:04 01-Dirty Girl
DR6 -0.02 dB -7.42 dB 3:49 02-Out Of The Shadows
DR7 -0.02 dB -8.96 dB 4:53 03-The Deep End
DR6 -0.02 dB -7.69 dB 4:01 04-Power Of Love
DR8 -0.02 dB -9.74 dB 6:23 05-Without You
DR8 -0.02 dB -8.42 dB 4:46 06-Let Me In
DR7 -0.02 dB -8.71 dB 6:02 07-Don't Let The Sun Set
DR7 -0.02 dB -7.91 dB 4:58 08-Robbin' Me Blind
DR8 -0.02 dB -10.81 dB 6:28 09-Slow Dance Blues
DR6 -0.02 dB -7.61 dB 3:08 10-In The Middle Of The Night
DR6 -0.02 dB -8.56 dB 5:19 11-Planet Bongo
--------------------------------------------------------------------------------

Number of tracks: 11
Official DR value: DR7

Samplerate: 44100 Hz
Channels: 2
Bits per sample: 16
Bitrate: 973 kbps
Codec: FLAC
================================================================================

CUETools Log
[CUETools log; Date: 06.08.2015 15:51:07; Version: 2.1.5]
[CTDB TOCID: TDsnNGwhlvUorpRHPXK3MKaZhSE-] found.
Track | CTDB Status
1 | (1/1) Accurately ripped
2 | (1/1) Accurately ripped
3 | (1/1) Accurately ripped
4 | (1/1) Accurately ripped
5 | (1/1) Accurately ripped
6 | (1/1) Accurately ripped
7 | (1/1) Accurately ripped
8 | (1/1) Accurately ripped
9 | (1/1) Accurately ripped
10 | (1/1) Accurately ripped
11 | (1/1) Accurately ripped
[AccurateRip ID: 00164457-00c2a288-9a0cdb0b] found.
Track [ CRC | V2 ] Status
01 [0ff67d79|474eb8e1] (0+1/1) Accurately ripped
02 [44e85b07|1ac68549] (0+1/1) Accurately ripped
03 [7abf4aec|a5237a1f] (0+1/1) Accurately ripped
04 [6a3c2e9d|a9bde508] (0+1/1) Accurately ripped
05 [73ad8c42|b4c660ba] (0+1/1) Accurately ripped
06 [d67df179|216cb4c3] (0+1/1) Accurately ripped
07 [82457642|f982f6f9] (0+1/1) Accurately ripped
08 [d7058f25|d567fd4d] (0+1/1) Accurately ripped
09 [768b829a|790e57c0] (0+1/1) Accurately ripped
10 [e01e0e4e|5f61a18f] (0+1/1) Accurately ripped
11 [2a790baa|946a7dfe] (0+1/1) Accurately ripped

Track Peak [ CRC32 ] [W/O NULL] [ LOG ]
-- 99,7 [9382F90C] [356C83D0] CRC32
01 99,7 [6B806DEA] [51190F0E]
02 99,7 [50483B32] [CA99DB6A]
03 99,7 [D39748EF] [AA81C0CD]
04 99,7 [DC6956FE] [FF952461]
05 99,7 [D719B9B9] [DF4B513E]
06 99,7 [AC42AA1A] [668406F6]
07 99,7 [13D3D19D] [A7195A32]
08 99,7 [278EC410] [5B0F695D]
09 99,7 [8C77BFEE] [04D6CCB4]
10 99,7 [94083499] [7D0A5DC8]
11 99,7 [C97CBF33] [3486FE6F]


All thanks go to Boris1
Download:

Nitroflare: FLAC-part 1 | FLAC-part 2 | Scans | mp3

Uploadable: FLAC-part 1 | FLAC-part 2 | Scans | mp3

Hitfile: FLAC-part 1 | FLAC-part 2 | Scans | mp3


Free Full Download {title limit="40"} form MediaFire, Uploaded.to, Zippyshare, FileSonic, turbobit.net, ul.to, ORON, DepositFiles, rapidgator.net, letitbit.net, extabit.com, filefactory.com. {title limit="40"} Torrent Download with keygen, crack, serial, dvdrip, 1024, 2016, HD, 720p, 2015
1 190
      
Rating:
(votes: 0)

Reviews -
0