Login
» » King Of The World - Live At Paradiso (2015)

King Of The World - Live At Paradiso (2015)


King Of The World - Live At Paradiso (2015)
EAC Rip | FLAC (Img) + Cue + Log ~ 548 Mb | Scans (JPG, 300 dpi) ~ 114 Mb | RAR 5% Recovery
Blues, Blues-Rock | KOTW Records #KOTW 1505

Since the kick-off early 2012 of “K(ing) (O)f (T)he W(orld)” (Erwin Java (gtr), Fokke de Jong (drs/bvox), Govert van der Kolm (Hammond/bvox) and Ruud Weber (leadvox/bgtr), things have developed prosperously for this Dutch blues, rhythm & roots band. Through the release of the 2 albums “Can't Go Home“ (2013) and “KOTW” (2014) the band definitely confirmed its status in the Dutch blues scene. Both albums scored sheer positive reviews as well in the Dutch as in the foreign music press.

But also the live reputation that has been built up through shows at festivals like the Rhythm & Blues Night Groningen, Bluesrock Tegelen and the Highlandsfestival, has contributed to the forementioned status. And the band is not only playing at festivals but is also a regular guest at Dutch rock venues like Paradiso Amsterdam, De Boerderij Zoetermeer, Hedon Zwolle and many others. A living proof that the band has succeeded in expressing the blues in its various forms. Furthermore, other than the press, also radio and TV is spotting the band: in march 2013 the group is live presenting “Can't Go Home” in the radio show “TROS Music Café”. In that same period the band is making a live-appearance in the TV-show “Vrije Geluiden “ (transl. Free Sounds). The latter being the first time ever for a Dutch blues-orientated band.

The group has won 5 Dutch Blues Awards in 2014 (best drummer, best keyboardplayer, best bass player, best guitarist and best bluesband). Two unique live-appearances early 2014 on the prestigious late night TV-show “Pauw & Witteman” is confirming the bands growing nationwide recognition. On June 2nd 2014 the band is spotlighted for 45 minutes in a RTL7 TV-special called “Derksen on the Road”. 2014 is marked by no less than 60 KOTW-shows from which the one on the North Sea Jazz Festival in Rotterdam (July 13th) is considered to be one of the highlights. Also the band plays 2 successful shows in Germany, which is leading to, more shows over there. So we can expect something there in the near future. In November 2014 the soundbook “Pioniers van de Nederpop” (transl. Pioneers of Dutch Rock) is released as a result of forementioned “Derksen on the Road”. The DVD contains a.o. the TV-special concerning King Of The World where the CD contains a.o. 4 KOTW-songs. X-mass 2014 KOTW is playing 8 songs live in a regional TV-show called “ Jongens van het Noorden” (transl. Boys from the North). It 's another intimate portrait of the band. In this last month of that year KOTW is recording several live shows. The show at Dutch Rockvenue nr. 1 “Paradiso“ (Amsterdam) has got that special atmosphere. Therefore the band has decided to release the album “Live at Paradiso” in May 2015 forthcoming. And...the planning for a third studio-album is on the roll.
~ kingoftheworld.eu


***************


Track List:

01. Messing with my mind [03:43]
02. On my way back home [03:13]
03. If you want to leave [06:26]
04. Let's go get stoned [05:31]
05. Bluesified [05:28]
06. Evil Thing [03:43]
07. Do it [05:19]
08. Better leave while you can [04:23]
09. Can't go home [10:55]
10. Number one [04:14]
11. Broke and lonely [08:45]
12. Woman across the river [06:22]
13. Beating like a drum [04:59]

EAC Log
Exact Audio Copy V1.0 beta 3 from 29. August 2011

Отчёт EAC об извлечении, выполненном 27. июня 2015, 11:15

King of the World / Live at Paradiso

Дисковод: PLEXTOR DVDR PX-880SA Adapter: 1 ID: 0

Режим чтения : Достоверность
Использование точного потока : Да
Отключение кэша аудио : Да
Использование указателей C2 : Нет

Коррекция смещения при чтении : 6
Способность читать области Lead-in и Lead-out : Нет
Заполнение пропущенных сэмплов тишиной : Да
Удаление блоков с тишиной в начале и конце : Нет
При вычислениях CRC использовались нулевые сэмплы : Да
Интерфейс : Установленный внешний ASPI-интерфейс

Выходной формат : Пользовательский кодировщик
Выбранный битрейт : 1024 kBit/s
Качество : Высокий
Добавление ID3-тега : Нет
Утилита сжатия : C:Program FilesExact Audio CopyFLACFLAC.EXE
Дополнительные параметры : -10 -V -T "ARTIST=%artist%" -T "ALBUM=%albumtitle%" -T "DATE=%year%" -T "GENRE=%genre%" -T "COMMENT=ripped by izia1956" %source% TOC извлечённого CD

Трек | Старт | Длительность | Начальный сектор | Конечный сектор
---------------------------------------------------------------------
1 | 0:00.00 | 3:42.29 | 0 | 16678
2 | 3:42.29 | 3:12.63 | 16679 | 31141
3 | 6:55.17 | 6:25.33 | 31142 | 60049
4 | 13:20.50 | 5:30.26 | 60050 | 84825
5 | 18:51.01 | 5:27.09 | 84826 | 109359
6 | 24:18.10 | 3:42.12 | 109360 | 126021
7 | 28:00.22 | 5:18.64 | 126022 | 149935
8 | 33:19.11 | 4:22.41 | 149936 | 169626
9 | 37:41.52 | 10:54.62 | 169627 | 218738
10 | 48:36.39 | 4:13.18 | 218739 | 237731
11 | 52:49.57 | 8:44.16 | 237732 | 277047
12 | 61:33.73 | 6:21.22 | 277048 | 305644
13 | 67:55.20 | 4:58.55 | 305645 | 328049 Характеристики диапазона извлечения и сообщения об ошибках

Выбранный диапазон

Имя файла D:BitCometKing Of The World2015 - Live at ParadisoKing of the World - Live at Paradiso.wav

Пиковый уровень 98.9 %
Скорость извлечения 2.7 X
Качество диапазона 100.0 %
CRC теста A4E9FF63
CRC копии A4E9FF63
Копирование... OK

Ошибок не произошло


AccurateRip: сводка

Трек 1 отсутствует в базе данных
Трек 2 отсутствует в базе данных
Трек 3 отсутствует в базе данных
Трек 4 отсутствует в базе данных
Трек 5 отсутствует в базе данных
Трек 6 отсутствует в базе данных
Трек 7 отсутствует в базе данных
Трек 8 отсутствует в базе данных
Трек 9 отсутствует в базе данных
Трек 10 отсутствует в базе данных
Трек 11 отсутствует в базе данных
Трек 12 отсутствует в базе данных
Трек 13 отсутствует в базе данных

Ни одного трека нет в базе AccurateRip

Конец отчёта

==== Контрольная сумма отчёта 5A6B05E0C37020741BD7C1541F61832AF095BC627939A74F51EA238B68323DD0 ====

DR Log
foobar2000 1.2.6 / Dynamic Range Meter 1.1.1
log date: 2015-07-18 20:26:13

--------------------------------------------------------------------------------
Analyzed: King of the World / Live at Paradiso
--------------------------------------------------------------------------------

DR Peak RMS Duration Track
--------------------------------------------------------------------------------
DR7 -0.10 dB -7.93 dB 3:42 01-Messing with my mind
DR7 -0.10 dB -8.81 dB 3:13 02-On my way back home
DR6 -0.10 dB -8.33 dB 6:25 03-If you want to leave
DR7 -0.10 dB -8.85 dB 5:30 04-Let's go get stoned
DR7 -0.10 dB -9.01 dB 5:27 05-Bluesified
DR8 -0.10 dB -9.43 dB 3:42 06-Evil Thing
DR7 -0.10 dB -8.72 dB 5:19 07-Do it
DR6 -0.10 dB -7.77 dB 4:23 08-Better leave while you can
DR8 -0.10 dB -12.90 dB 10:55 09-Can't go home
DR7 -0.10 dB -7.64 dB 4:13 10-Number one
DR8 -0.10 dB -10.64 dB 8:44 11-Broke and lonely
DR7 -0.10 dB -8.75 dB 6:21 12-Woman across the river
DR10 -0.10 dB -12.10 dB 4:59 13-Beating like a drum
--------------------------------------------------------------------------------

Number of tracks: 13
Official DR value: DR7

Samplerate: 44100 Hz
Channels: 2
Bits per sample: 16
Bitrate: 1001 kbps
Codec: FLAC
================================================================================

CUETools Log
[CUETools log; Date: 18.07.2015 20:25:13; Version: 2.1.5]
[CTDB TOCID: C4J1FrjY7jKzl3sMYa8jlWOVH78-] found.
Track | CTDB Status
1 | (2/2) Accurately ripped
2 | (2/2) Accurately ripped
3 | (2/2) Accurately ripped
4 | (2/2) Accurately ripped
5 | (2/2) Accurately ripped
6 | (2/2) Accurately ripped
7 | (2/2) Accurately ripped
8 | (2/2) Accurately ripped
9 | (2/2) Accurately ripped
10 | (2/2) Accurately ripped
11 | (2/2) Accurately ripped
12 | (2/2) Accurately ripped
13 | (2/2) Accurately ripped
[AccurateRip ID: 00204528-014bdbb7-9d11160d] found.
Track [ CRC | V2 ] Status
01 [78011ab7|11fe5f17] (0+2/2) Accurately ripped
02 [123eb4a4|fd794e65] (0+2/2) Accurately ripped
03 [0b2d8c61|022c0947] (0+2/2) Accurately ripped
04 [68493544|09b30801] (0+2/2) Accurately ripped
05 [484f7805|9fe4594f] (0+2/2) Accurately ripped
06 [8723af5a|9faf6ab1] (0+2/2) Accurately ripped
07 [d302a5c0|5f98f1ab] (0+2/2) Accurately ripped
08 [4d128a4e|9b51df79] (0+2/2) Accurately ripped
09 [4b48f40f|fc5c5111] (0+2/2) Accurately ripped
10 [404b1d0c|11dd4210] (0+2/2) Accurately ripped
11 [126431cf|096ec10c] (0+2/2) Accurately ripped
12 [67e8f08c|cf828206] (0+2/2) Accurately ripped
13 [ef551201|5fa4400b] (0+2/2) Accurately ripped

Track Peak [ CRC32 ] [W/O NULL] [ LOG ]
-- 98,9 [A4E9FF63] [0A834547] CRC32
01 98,9 [BBC6AF6A] [33596D21]
02 98,9 [D368BCC9] [A40F876E]
03 98,9 [F1DC1BD1] [A04597AF]
04 98,9 [D52A5C9C] [1269588A]
05 98,9 [EC0DDA57] [E417E396]
06 98,9 [F8F48381] [7583C48F]
07 98,9 [7CF28BB0] [28B7C136]
08 98,9 [5969AD23] [8DCD7DAF]
09 98,9 [CDDA2D59] [2466EDE6]
10 98,9 [3AB3AB31] [18264C04]
11 98,9 [66BEFF75] [DCB63FF5]
12 98,9 [651C3C0A] [080E087B]
13 98,9 [AF60261C] [F977A4B7]


All thanks go to izia1956
Download:




Free Full Download {title limit="40"} form MediaFire, Uploaded.to, Zippyshare, FileSonic, turbobit.net, ul.to, ORON, DepositFiles, rapidgator.net, letitbit.net, extabit.com, filefactory.com. {title limit="40"} Torrent Download with keygen, crack, serial, dvdrip, 1024, 2016, HD, 720p, 2015
1 043
      
Rating:
(votes: 0)

Reviews -
0