Login
» » TKY - Above and Beyond (2009)

TKY - Above and Beyond (2009)


TKY - Above and Beyond (2009)
EAC Rip | FLAC (image+.cue+log) - 377 MB | MP3 CBR 320 kbps (LAME 3.93) - 141 MB | Covers - 104 MB
Genre: Downtempo, Ambient | RAR 3% Rec. | Label: Com.Pact Records (CPCD-IL044)

TKY is the project of gifted producer, Yaniv Zaidman, a sound engineer and composer of music for various media platforms. His impressive resume includes 20 years of keyboard playing and loads of theoretical knowledge, number of movies, a several compilation releases on labels such as Candyflip, Agitato, Com.Pact and Golden Bay records. Above and Beyond is a story of a journey to the southern hemisphere. A cultural experience and exposure to the heart of the Oceana world. From the modern society to the deepest of the tribal life of the Australian aborigines and the New Zealandian Maoris this album is where east and west meet.

Tracklist:
01. Down The Hill
02. Reflections
03. No Worries Made
04. Taupo Dive
05. Magnetic
06. Sandfly Dunes
07. One Lane Bridge
08. Above & Beyond
09. Goldenbay Spirits
10 You Never Know

Total time: 59:58

EAC log
Exact Audio Copy V0.99 prebeta 4 from 23. January 2008

EAC extraction logfile from 26. January 2011, 17:31

TKY / Adove & Beyond

Used drive : HL-DT-STDVDRAM GSA-T50N Adapter: 1 ID: 0

Read mode : Secure
Utilize accurate stream : Yes
Defeat audio cache : Yes
Make use of C2 pointers : No

Read offset correction : 667
Overread into Lead-In and Lead-Out : No
Fill up missing offset samples with silence : Yes
Delete leading and trailing silent blocks : No
Null samples used in CRC calculations : Yes
Used interface : Native Win32 interface for Win NT & 2000

Used output format : Internal WAV Routines
Sample format : 44.100 Hz; 16 Bit; Stereo TOC of the extracted CD

Track | Start | Length | Start sector | End sector
---------------------------------------------------------
1 | 0:00.00 | 6:14.36 | 0 | 28085
2 | 6:14.36 | 5:28.37 | 28086 | 52722
3 | 11:42.73 | 4:21.45 | 52723 | 72342
4 | 16:04.43 | 4:54.18 | 72343 | 94410
5 | 20:58.61 | 5:51.08 | 94411 | 120743
6 | 26:49.69 | 6:28.53 | 120744 | 149896
7 | 33:18.47 | 6:14.59 | 149897 | 178005
8 | 39:33.31 | 7:38.71 | 178006 | 212426
9 | 47:12.27 | 6:36.21 | 212427 | 242147
10 | 53:48.48 | 6:08.73 | 242148 | 269820 Range status and errors

Selected range

Filename C:tmpTKY - Adove & BeyondTKY - Adove & Beyond.wav

Peak level 96.6 %
Range quality 99.9 %
Test CRC 20F36A5C
Copy CRC 20F36A5C
Copy OK

No errors occurred


AccurateRip summary

Track 1 accurately ripped (confidence 1) [40CB2FE2]
Track 2 accurately ripped (confidence 1) [7A633306]
Track 3 accurately ripped (confidence 1) [95760033]
Track 4 accurately ripped (confidence 1) [D327598A]
Track 5 accurately ripped (confidence 1) [4425D300]
Track 6 accurately ripped (confidence 1) [EDA55545]
Track 7 accurately ripped (confidence 1) [C0DCC169]
Track 8 accurately ripped (confidence 1) [E0845443]
Track 9 accurately ripped (confidence 1) [597EE731]
Track 10 accurately ripped (confidence 1) [9EEA6CE5]

All tracks accurately ripped

End of status report

CUETools log
[CUETools log; Date: 05.06.2015 12:55:32; Version: 2.1.4]
[CTDB TOCID: OZi_CW3rb1qo8OQuqqI0zEJDos4-] found.
Track | CTDB Status
1 | (1/1) Accurately ripped
2 | (1/1) Accurately ripped
3 | (1/1) Accurately ripped
4 | (1/1) Accurately ripped
5 | (1/1) Accurately ripped
6 | (1/1) Accurately ripped
7 | (1/1) Accurately ripped
8 | (1/1) Accurately ripped
9 | (1/1) Accurately ripped
10 | (1/1) Accurately ripped
[AccurateRip ID: 0015ad3e-00af17e2-700e0d0a] found.
Track [ CRC | V2 ] Status
01 [40cb2fe2|3619a93f] (1+0/1) Accurately ripped
02 [7a633306|7cb051ea] (1+0/1) Accurately ripped
03 [95760033|2af7ca6e] (1+0/1) Accurately ripped
04 [d327598a|2a17d306] (1+0/1) Accurately ripped
05 [4425d300|c9327f9d] (1+0/1) Accurately ripped
06 [eda55545|f6694604] (1+0/1) Accurately ripped
07 [c0dcc169|4ef3f4f7] (1+0/1) Accurately ripped
08 [e0845443|fabd4da8] (1+0/1) Accurately ripped
09 [597ee731|11a8cbd9] (1+0/1) Accurately ripped
10 [9eea6ce5|b653816e] (1+0/1) Accurately ripped

Track Peak [ CRC32 ] [W/O NULL] [ LOG ]
-- 96,6 [20F36A5C] [2CBDB054] CRC32
01 96,6 [BE12317F] [E0BF5095]
02 96,6 [C062CDA4] [C50DDB10]
03 96,6 [865608D7] [8493B4A2]
04 96,6 [3A70BB04] [D974D591]
05 96,6 [3C639646] [80ADEF3B]
06 96,6 [8209BE0F] [6BA53E1E]
07 96,6 [70AB17C3] [2AE62AFC]
08 96,6 [FAF5DEE7] [2A4DB2B4]
09 96,6 [5AE97558] [8800A260]
10 96,6 [0EDD9140] [DAEF176E]

Thanks to loh27

Nitroflare.com

LOSSLESS:
Nitroflare.com
_______________

MP3 320 kbps:
Nitroflare.com
_______________

Covers:
Nitroflare.com

Depositfiles.com

LOSSLESS:
Depositfiles.com
_______________

MP3 320 kbps:
Depositfiles.com
_______________

Covers:
Depositfiles.com


Free Full Download {title limit="40"} form MediaFire, Uploaded.to, Zippyshare, FileSonic, turbobit.net, ul.to, ORON, DepositFiles, rapidgator.net, letitbit.net, extabit.com, filefactory.com. {title limit="40"} Torrent Download with keygen, crack, serial, dvdrip, 1024, 2016, HD, 720p, 2015
700
      
Rating:
(votes: 9)

Reviews -
0