Login
» » Sonny Landreth - Bound By The Blues (2015)

Sonny Landreth - Bound By The Blues (2015)


Sonny Landreth - Bound By The Blues (2015)
EAC Rip | FLAC (Img) + Cue + Log ~ 473 Mb | Scans (JPG, 600 dpi) ~ 188 Mb | RAR 5% Recovery
Blues, Louisiana Blues, Slide Guitar | Provogue Records/Mascot Music Production #PRD 7466 2

Sonny Landreth’s new album Bound By The Blues marks a return to the slide guitarist’s musical roots. It presents a bold, big-sounding collection of recordings that climb to stratospheric heights of jazz informed improvisation, the best of classic rock, and inevitably remain deeply attached to the elemental emotional and compositional structures that are at the blues’ historic core. Bound By The Blues is a powerful tribute to the durability and flexibility of the genre, and to his own creative vision. Sonny name-checks Jimi Hendrix, Muddy Waters and some of Landreth’s other musical heroes along the way. He also pays homage to fellow slide guitarist Johnny Winter, with the instrumental “Firebird Blues.” He recreates some amazing covers “Walkin’ Blues” by Robert Johnson, and “Dust My Broom” by Elmore James. Landreth continues to develop his vision and his musical voice, growing increasingly original and distinctively diverse sounds expanding from blues, zydeco, folk, country and jazz, making bound By The Blues one of his most ambitious albums to date.
~ amazon

The last time Sonny Landreth released a stripped-down blues trio date recorded in a studio was 2003's The Road We're On in 2003, and his previous album to this was 2012's maximal Elemental Journey, which ranged over blues, jazz, zydeco, and reggae and had ambitious arrangements that included everything from steel drums to strings and winds. Bound by the Blues features his longstanding group (bassist David Ranson and drummer Brian Brignac) and was recorded at his Comoland Studio in Lafayette, Louisiana. It was co-produced by Landreth and Tony Daigle, and includes originals and standards, vocal tunes and instrumental workouts. A raucous version of Robert Johnson's "Walking Blues" opens it with blazing slide guitar. Courtesy of Daigle, it has an enormous (but natural-sounding) drum mix and offers a killer bridge. Landreth reprises Johnson's "Dust My Broom" later and recombines Elmore James' version with hard-strutting Chicago bravado and a Hendrixian flourish. Speaking of James, his "It Hurts Me Too" is also here; it has a roiling, midtempo churn with Landreth's guitar playing extended by his soulful vocals. The title track is an original, with the guitarist on an acoustic National Steel with his electric, bumping, almost funky bassline and martial snare shuffle adding balance and illustrating the Como style. On "The High Side," he offers an excellent modern take on the country-blues. The instrumental "Firebird Blues" is dedicated to the memory of Johnny Winter. Landreth evokes the late guitarist's slow, wrangling, Delta-cum-Texas style in scorching form. But there's a surprise in the bassline which is mixed like a tuba at a New Orleans funeral march. Landreth's version of Skip James' "Cherry Ball Blues," with its strident pace and distorted, wrangling solo, offers an entirely new interpretation. On Big Bill Broonzy's "Key to the Highway," Landreth simultaneously pays tribute to Buddy Guy and Jimmy Reed. "Simcoe Street" is another original instrumental, this time a choogling boogie made for the roadhouse dancefloor. Bound by the Blues is certainly a welcome return for the guitarist and his trio doing what they do best, and well worth the wait. Here, Landreth reaffirms his commitment to the blues as a free-spirited and still vibrant creative form.

~ Thom Jurek, All Music Guide


***************


Track List:

01. Walkin' Blues [04:50]
02. Bound By The Blues [03:08]
03. The High Side [03:58]
04. It Hurt Me Too [03:38]
05. Where They Will [04:28]
06. Charry Ball Blues [04:11]
07. Firebird Blues [03:44]
08. Dust My Broom [04:08]
09. Key To The Highway [05:34]
10. Simcoe Street [04:01]

EAC Log
Exact Audio Copy V1.0 beta 6 from 9. April 2015

EAC extraction logfile from 17. July 2015, 13:47

Sonny Landreth / Bound By The Blues

Used drive : PLEXTOR DVDR PX-891SA Adapter: 0 ID: 2

Read mode : Secure
Utilize accurate stream : Yes
Defeat audio cache : Yes
Make use of C2 pointers : No

Read offset correction : 6
Overread into Lead-In and Lead-Out : No
Fill up missing offset samples with silence : Yes
Delete leading and trailing silent blocks : No
Null samples used in CRC calculations : Yes
Used interface : Installed external ASPI interface

Used output format : User Defined Encoder
Selected bitrate : 320 kBit/s
Quality : High
Add ID3 tag : No
Command line compressor : C:Program FilesExact Audio Copy 1.0 b6Exact Audio CopyFlacflac.exe
Additional command line options : -V -8 -T "Date=%year%" -T "Genre=%genre%" %source% TOC of the extracted CD

Track | Start | Length | Start sector | End sector
---------------------------------------------------------
1 | 0:00.00 | 4:49.54 | 0 | 21728
2 | 4:49.54 | 3:07.36 | 21729 | 35789
3 | 7:57.15 | 3:57.26 | 35790 | 53590
4 | 11:54.41 | 3:37.01 | 53591 | 69866
5 | 15:31.42 | 4:27.06 | 69867 | 89897
6 | 19:58.48 | 4:10.35 | 89898 | 108682
7 | 24:09.08 | 3:43.04 | 108683 | 125411
8 | 27:52.12 | 4:07.50 | 125412 | 143986
9 | 31:59.62 | 5:33.18 | 143987 | 168979
10 | 37:33.05 | 4:00.35 | 168980 | 187014 Range status and errors

Selected range

Filename L:Lossless TempSonny Landreth2015. Sonny Landreth - Bound By The Blues (2015 Mascot Music Production, PRD 7466 2, E.U.)Sonny Landreth - Bound By The Blues.wav

Peak level 100.0 %
Extraction speed 7.5 X
Range quality 100.0 %
Test CRC B733772C
Copy CRC B733772C
Copy OK

No errors occurred


AccurateRip summary

Track 1 accurately ripped (confidence 6) [6C851C9E] (AR v2)
Track 2 accurately ripped (confidence 6) [31FFB751] (AR v2)
Track 3 accurately ripped (confidence 6) [27D17262] (AR v2)
Track 4 accurately ripped (confidence 6) [B8ADB09E] (AR v2)
Track 5 accurately ripped (confidence 6) [37858C51] (AR v2)
Track 6 accurately ripped (confidence 6) [27FD3ED6] (AR v2)
Track 7 accurately ripped (confidence 6) [761C1C05] (AR v2)
Track 8 accurately ripped (confidence 6) [8CDF4E6D] (AR v2)
Track 9 accurately ripped (confidence 6) [55CC1A14] (AR v2)
Track 10 accurately ripped (confidence 6) [F5674E52] (AR v2)

All tracks accurately ripped

End of status report

==== Log checksum B535228375B4985D823D6B6FCF8AE90959BD04A111C036FEC90EC8FFCC7BC133 ====

DR Log
foobar2000 1.2.6 / Dynamic Range Meter 1.1.1
log date: 2015-07-17 15:22:39

--------------------------------------------------------------------------------
Analyzed: Sonny Landreth / Bound By The Blues
--------------------------------------------------------------------------------

DR Peak RMS Duration Track
--------------------------------------------------------------------------------
DR8 -0.19 dB -9.21 dB 4:50 01-Walkin' Blues
DR8 0.00 dB -9.05 dB 3:07 02-Bound By The Blues
DR7 0.00 dB -9.10 dB 3:57 03-The High Side
DR8 -0.20 dB -8.97 dB 3:37 04-It Hurt Me Too
DR7 -0.18 dB -9.43 dB 4:27 05-Where They Will
DR8 -0.27 dB -8.84 dB 4:10 06-Charry Ball Blues
DR9 -0.22 dB -10.27 dB 3:43 07-Firebird Blues
DR8 -0.13 dB -9.45 dB 4:08 08-Dust My Broom
DR7 -0.19 dB -9.02 dB 5:33 09-Key To The Highway
DR9 -0.25 dB -9.98 dB 4:00 10-Simcoe Street
--------------------------------------------------------------------------------

Number of tracks: 10
Official DR value: DR8

Samplerate: 44100 Hz
Channels: 2
Bits per sample: 16
Bitrate: 912 kbps
Codec: FLAC
================================================================================

CUETools Log
[CUETools log; Date: 17.07.2015 15:22:32; Version: 2.1.5]
[CTDB TOCID: h2O0Xt2EoiVWhQOhyCnDsckMZmQ-] found.
Track | CTDB Status
1 | (10/10) Accurately ripped
2 | (10/10) Accurately ripped
3 | (10/10) Accurately ripped
4 | (10/10) Accurately ripped
5 | (10/10) Accurately ripped
6 | (10/10) Accurately ripped
7 | (10/10) Accurately ripped
8 | (10/10) Accurately ripped
9 | (10/10) Accurately ripped
10 | (10/10) Accurately ripped
[AccurateRip ID: 000f5598-007affa9-7a09bd0a] found.
Track [ CRC | V2 ] Status
01 [a5afbfad|6c851c9e] (0+6/6) Accurately ripped
02 [81fca5f1|31ffb751] (0+6/6) Accurately ripped
03 [2cf22ff8|27d17262] (0+6/6) Accurately ripped
04 [999d9cf7|b8adb09e] (0+6/6) Accurately ripped
05 [3caf8eb0|37858c51] (0+6/6) Accurately ripped
06 [2c01174a|27fd3ed6] (0+6/6) Accurately ripped
07 [df193ca0|761c1c05] (0+6/6) Accurately ripped
08 [bef8bbb5|8cdf4e6d] (0+6/6) Accurately ripped
09 [ad1004fc|55cc1a14] (0+6/6) Accurately ripped
10 [1154dffe|f5674e52] (0+6/6) Accurately ripped

Track Peak [ CRC32 ] [W/O NULL] [ LOG ]
-- 100,0 [B733772C] [69A03FD8] CRC32
01 97,7 [CC0995D0] [31005F2D]
02 100,0 [3A4E843F] [AA54061D]
03 100,0 [001098BA] [DC750F73]
04 97,7 [051949BE] [3498DF26]
05 97,9 [5F65FA59] [F31B397E]
06 96,9 [99915436] [B75B86B7]
07 97,4 [E6A0BE56] [EEA6F211]
08 98,5 [14044EEA] [61B0303E]
09 97,7 [386E17EF] [580CD799]
10 97,2 [39EF1464] [ACCA3DCE]


All thanks go to Swamp Fox
Download:

Nitroflare: FLAC-part 1 | FLAC-part 2 | Scans



Free Full Download {title limit="40"} form MediaFire, Uploaded.to, Zippyshare, FileSonic, turbobit.net, ul.to, ORON, DepositFiles, rapidgator.net, letitbit.net, extabit.com, filefactory.com. {title limit="40"} Torrent Download with keygen, crack, serial, dvdrip, 1024, 2016, HD, 720p, 2015
547
      
Rating:
(votes: 0)

Reviews -
0