Login
» » The Blues Brothers - Briefcase Full Of Blues (1978) 2008 Remastered Atlantic 82788-2

The Blues Brothers - Briefcase Full Of Blues (1978) 2008 Remastered Atlantic 82788-2


The Blues Brothers - Briefcase Full Of Blues (1978/2008)
EAC Rip | FLAC (Img) + Cue + Log ~ 291 Mb | MP3 CBR320 ~ 116 Mb
Scans Included (JPG, 400 dpi) | RAR 5% Recovery
Blues, R&B| Atlantic #82788-2

The Blues Brothers, formally, variously The Blues Brothers' Show Band and Revue and The Blues Brothers' Rhythm and Blues Revue, are an American blues and rhythm and blues revivalist band founded in 1978 by comedy actors Dan Aykroyd and John Belushi as part of a musical sketch on Saturday Night Live. Briefcase Full of Blues is the debut album by The Blues Brothers, released on November 28, 1978 by Atlantic Records. It was recorded live on September 9, 1978 at the Universal Amphitheater in Los Angeles, when the band opened for comedian Steve Martin. The album consists of covers of blues and soul songs from the 1950s to 1970s. The album reached #1 on the Billboard 200 and went double platinum; according to Blues Brothers member Dan Aykroyd, the album has sold 3.5 million copies in all. It is among the highest-selling blues albums of all time. Two singles were released from the album: "Rubber Biscuit", which reached number 37 on the Billboard Hot 100 and "Soul Man," which reached number 14.
~ Wiki

The Blues Brothers began as an affectionate joke-cum-tribute to R&B music, and taken in that spirit it retained its entertainment value, even after this live album topped the charts, sold two million copies, and produced hit singles in "Rubber Biscuit" and "Soul Man." The guardians of popular music have always been entirely too reverent and humorless, however, and it wasn't long before they were leveling charges of rip-off against the Brothers and complaining that John Belushi couldn't sing as well as Otis Redding. So what? No one seems to have noticed that Belushi was as obsessive about citing his sources as Frank Sinatra is about naming his arrangers -- you'd have thought those critics would have appreciated the footnotes. The beneficiaries of Belushi's encomiums didn't mind the increased exposure or the renewed royalty checks ("I suggest you buy as many blues albums as you can," Belushi told the audience), and even today, what comes across in these performances is the sincerity of feeling -- that and some tasty playing from a top-notch band.
~ William Ruhlmann, All Music Guide


***************


Track List:

01. Opening: I Can't Turn You Loose [01:51]
02. Hey Bartender [03:02]
03. Messin' With The Kid [03:36]
04. (I Got Every Thing I Need) Almost [02:51]
05. Rubber Biscuit [02:58]
06. Shot Gun Blues [05:24]
07. Groove Me [03:47]
08. I Don't Know [04:15]
09. Soul Man [03:29]
10. B Movie Box Car Blues [04:09]
11. Flip, Flop & Fly [03:39]
12. Closing: I Can't Turn You Loose [00:52]

EAC Log
Exact Audio Copy V1.1 from 23. June 2015

EAC extraction logfile from 18. July 2015, 1:39

Blues Brothers / Briefcase Full Of Blues

Used drive : MATSHITADVD+-RW SW830 Adapter: 1 ID: 0

Read mode : Burst

Read offset correction : 6
Overread into Lead-In and Lead-Out : No
Fill up missing offset samples with silence : Yes
Delete leading and trailing silent blocks : No
Null samples used in CRC calculations : Yes
Used interface : Native Win32 interface for Win NT & 2000

Used output format : User Defined Encoder
Selected bitrate : 768 kBit/s
Quality : High
Add ID3 tag : No
Command line compressor : C:Program Files (x86)Exact Audio CopyFLACFLAC.EXE
Additional command line options : -6 -V -T "ARTIST=%artist%" -T "TITLE=%title%" -T "ALBUM=%albumtitle%" -T "DATE=%year%" -T "TRACKNUMBER=%tracknr%" -T "GENRE=%genre%" -T "COMMENT=%comment%" -T "BAND=%albuminterpret%" -T "ALBUMARTIST=%albuminterpret%" -T "COMPOSER=%composer%" %haslyrics%--tag-from-file=LYRICS="%lyricsfile%"%haslyrics% -T "DISCNUMBER=%cdnumber%" -T "TOTALDISCS=%totalcds%" -T "TOTALTRACKS=%numtracks%" %hascover%--picture="%coverfile%"%hascover% %source% -o %dest% TOC of the extracted CD

Track | Start | Length | Start sector | End sector
---------------------------------------------------------
1 | 0:00.32 | 1:50.10 | 32 | 8291
2 | 1:50.42 | 3:01.25 | 8292 | 21891
3 | 4:51.67 | 3:35.08 | 21892 | 38024
4 | 8:27.00 | 2:50.45 | 38025 | 50819
5 | 11:17.45 | 2:57.60 | 50820 | 64154
6 | 14:15.30 | 5:23.55 | 64155 | 88434
7 | 19:39.10 | 3:46.60 | 88435 | 105444
8 | 23:25.70 | 4:14.52 | 105445 | 124546
9 | 27:40.47 | 3:28.38 | 124547 | 140184
10 | 31:09.10 | 4:08.37 | 140185 | 158821
11 | 35:17.47 | 3:38.38 | 158822 | 175209
12 | 38:56.10 | 0:51.17 | 175210 | 179051 Range status and errors

Selected range

Filename C:UsersBorisDesktopBluBroBlues Brothers - Briefcase Full Of Blues.wav

Peak level 94.4 %
Extraction speed 9.8 X
Test CRC AF0949F8
Copy CRC AF0949F8
Copy OK

No errors occurred


AccurateRip summary

Track 1 accurately ripped (confidence 15) [2E653F1F] (AR v2)
Track 2 accurately ripped (confidence 15) [5B5F2D41] (AR v2)
Track 3 accurately ripped (confidence 15) [62FCF38D] (AR v2)
Track 4 accurately ripped (confidence 16) [E72F3AF4] (AR v2)
Track 5 accurately ripped (confidence 16) [97DC0EAA] (AR v2)
Track 6 accurately ripped (confidence 16) [E8FE455F] (AR v2)
Track 7 accurately ripped (confidence 15) [C0477838] (AR v2)
Track 8 accurately ripped (confidence 15) [12AAF10A] (AR v2)
Track 9 accurately ripped (confidence 15) [F70F3A46] (AR v2)
Track 10 accurately ripped (confidence 14) [0F2FF604] (AR v2)
Track 11 accurately ripped (confidence 15) [706616D8] (AR v2)
Track 12 accurately ripped (confidence 14) [7EFC20EF] (AR v2)

All tracks accurately ripped

End of status report

---- CUETools DB Plugin V2.1.6

[CTDB TOCID: .eLGaXAJZjLB3oh3mGOdGo_UWyw-] found
Submit result: .eLGaXAJZjLB3oh3mGOdGo_UWyw- has been confirmed
Track | CTDB Status
1 | (13/13) Accurately ripped
2 | (13/13) Accurately ripped
3 | (13/13) Accurately ripped
4 | (13/13) Accurately ripped
5 | (13/13) Accurately ripped
6 | (13/13) Accurately ripped
7 | (13/13) Accurately ripped
8 | (13/13) Accurately ripped
9 | (13/13) Accurately ripped
10 | (13/13) Accurately ripped
11 | (13/13) Accurately ripped
12 | (13/13) Accurately ripped ==== Log checksum 5BE204EA7151BE4045672FB3527581F8C638D4DCDC4E3E70C595A261AF5797DC ====

DR Log
foobar2000 1.2.6 / Dynamic Range Meter 1.1.1
log date: 2015-07-20 20:24:24

--------------------------------------------------------------------------------
Analyzed: Blues Brothers / Briefcase Full Of Blues
--------------------------------------------------------------------------------

DR Peak RMS Duration Track
--------------------------------------------------------------------------------
DR9 -0.50 dB -12.15 dB 1:50 01-Opening: I Can't Turn You Loose
DR9 -0.50 dB -10.99 dB 3:01 02-Hey Bartender
DR9 -0.50 dB -11.16 dB 3:35 03-Messin' With The Kid
DR9 -0.50 dB -11.06 dB 2:51 04-(I Got Every Thing I Need) Almost
DR9 -0.50 dB -12.32 dB 2:58 05-Rubber Biscuit
DR9 -0.50 dB -11.59 dB 5:24 06-Shot Gun Blues
DR9 -0.50 dB -11.85 dB 3:47 07-Groove Me
DR9 -0.50 dB -13.38 dB 4:15 08-I Don't Know
DR9 -0.50 dB -11.46 dB 3:29 09-Soul Man
DR8 -0.50 dB -12.48 dB 4:08 10-B Movie Box Car Blues
DR8 -0.50 dB -10.86 dB 3:39 11-Flip, Flop & Fly
DR9 -0.50 dB -12.57 dB 0:51 12-Closing: I Can't Turn You Loose
--------------------------------------------------------------------------------

Number of tracks: 12
Official DR value: DR9

Samplerate: 44100 Hz
Channels: 2
Bits per sample: 16
Bitrate: 903 kbps
Codec: FLAC
================================================================================

CUETools Log
[CUETools log; Date: 20.07.2015 20:24:11; Version: 2.1.5]
Pregap length 00:00:32.
[CTDB TOCID: .eLGaXAJZjLB3oh3mGOdGo_UWyw-] found.
Track | CTDB Status
1 | (15/15) Accurately ripped
2 | (15/15) Accurately ripped
3 | (15/15) Accurately ripped
4 | (15/15) Accurately ripped
5 | (15/15) Accurately ripped
6 | (15/15) Accurately ripped
7 | (15/15) Accurately ripped
8 | (15/15) Accurately ripped
9 | (15/15) Accurately ripped
10 | (15/15) Accurately ripped
11 | (15/15) Accurately ripped
12 | (15/15) Accurately ripped
[AccurateRip ID: 00119f60-00a86586-a009530c] found.
Track [ CRC | V2 ] Status
01 [c33abd1b|2e653f1f] (031+015/148) Accurately ripped
02 [6059c790|5b5f2d41] (031+015/148) Accurately ripped
03 [4d3c10d6|62fcf38d] (030+015/145) Accurately ripped
04 [c2824371|e72f3af4] (030+016/147) Accurately ripped
05 [be29cba5|97dc0eaa] (031+016/147) Accurately ripped
06 [fd9aa888|e8fe455f] (031+016/148) Accurately ripped
07 [a1d45859|c0477838] (031+015/147) Accurately ripped
08 [a8f8bf31|12aaf10a] (030+015/144) Accurately ripped
09 [05c54987|f70f3a46] (031+015/145) Accurately ripped
10 [eab8e206|0f2ff604] (030+014/143) Accurately ripped
11 [c26ad9b6|706616d8] (031+015/147) Accurately ripped
12 [86935b1c|7efc20ef] (031+014/142) Accurately ripped
Offsetted by -173:
01 [36a996d8] (017/148) Accurately ripped
02 [46ef62bd] (017/148) Accurately ripped
03 [18c74ff7] (017/145) Accurately ripped
04 [93e050c2] (017/147) Accurately ripped
05 [6e4c40c1] (017/147) Accurately ripped
06 [aa05d9f2] (017/148) Accurately ripped
07 [9c33aebf] (017/147) Accurately ripped
08 [46e6de7f] (016/144) Accurately ripped
09 [aaead527] (017/145) Accurately ripped
10 [a7e7b8da] (016/143) Accurately ripped
11 [25b9bf42] (017/147) Accurately ripped
12 [6ab31543] (016/142) Accurately ripped
Offsetted by 660:
01 [ee2832dd] (007/148) Accurately ripped
02 [8f32c7a4] (007/148) Accurately ripped
03 [202dd718] (006/145) Accurately ripped
04 [74c2bd83] (007/147) Accurately ripped
05 [c46a244a] (005/147) Accurately ripped
06 [40bec8d1] (006/148) Accurately ripped
07 [7bfce4a8] (006/147) Accurately ripped
08 [ac2b9e87] (006/144) Accurately ripped
09 [5ac9168a] (006/145) Accurately ripped
10 [d05de516] (006/143) Accurately ripped
11 [2788748b] (006/147) Accurately ripped
12 [838a45df] (006/142) Accurately ripped
Offsetted by 705:
01 [a1fd0335] (027/148) Accurately ripped
02 [8000999a] (027/148) Accurately ripped
03 [94df3b2b] (027/145) Accurately ripped
04 [132879e0] (027/147) Accurately ripped
05 [3c40f8a9] (027/147) Accurately ripped
06 [8f9cd2dd] (027/148) Accurately ripped
07 [418e63f9] (027/147) Accurately ripped
08 [bec5afc1] (027/144) Accurately ripped
09 [f6ced5ad] (026/145) Accurately ripped
10 [68059e03] (027/143) Accurately ripped
11 [0696a698] (027/147) Accurately ripped
12 [230a9949] (025/142) Accurately ripped
Offsetted by -171:
01 [7d71f4bf] (000/148) No match (V2 was not tested)
02 [18c826f5] (000/148) No match (V2 was not tested)
03 [17749116] (000/145) No match (V2 was not tested)
04 [7477a7d5] (000/147) No match (V2 was not tested)
05 [efe364c0] (000/147) No match (V2 was not tested)
06 [bced3441] (000/148) No match (V2 was not tested)
07 [516b9b46] (000/147) No match (V2 was not tested)
08 [fecbb468] (000/144) No match (V2 was not tested)
09 [95010f38] (000/145) No match (V2 was not tested)
10 [2c900b78] (000/143) No match (V2 was not tested)
11 [01df17f5] (000/147) No match (V2 was not tested)
12 [cf49b0a4] (000/142) No match (V2 was not tested)
Offsetted by 74:
01 [d012ba23] (000/148) No match (V2 was not tested)
02 [8d9001f7] (000/148) No match (V2 was not tested)
03 [d6eef466] (000/145) No match (V2 was not tested)
04 [6f260411] (000/147) No match (V2 was not tested)
05 [fa3734b6] (000/147) No match (V2 was not tested)
06 [70fb47b5] (000/148) No match (V2 was not tested)
07 [a352dcce] (000/147) No match (V2 was not tested)
08 [df0a4c46] (000/144) No match (V2 was not tested)
09 [cbedd270] (000/145) No match (V2 was not tested)
10 [c9c73b9c] (000/143) No match (V2 was not tested)
11 [b3d208fa] (000/147) No match (V2 was not tested)
12 [df11ac84] (000/142) No match (V2 was not tested)

Track Peak [ CRC32 ] [W/O NULL] [ LOG ]
-- 94,4 [AF0949F8] [58E0378C] CRC32
01 94,4 [E39C3974] [F38D82ED]
02 94,4 [0B482041] [4A5E558D]
03 94,4 [D164A891] [3F2FD069]
04 94,4 [674EC708] [68D14C80]
05 94,4 [F8773AA3] [4FED8E67]
06 94,4 [A1FB56B4] [2E961B25]
07 94,4 [4BA4875A] [3E6BBCAB]
08 94,4 [BAF065D1] [C947329B]
09 94,4 [838E4BEE] [E2ADE807]
10 94,4 [90737992] [63641686]
11 94,4 [2BF95634] [2031400D]
12 94,4 [363DC8B9] [75312EAF]


All thanks go to Boris1
Download:

Nitroflare: FLAC | mp3

Uploadable: FLAC | mp3

Hitfile: FLAC | mp3


Free Full Download {title limit="40"} form MediaFire, Uploaded.to, Zippyshare, FileSonic, turbobit.net, ul.to, ORON, DepositFiles, rapidgator.net, letitbit.net, extabit.com, filefactory.com. {title limit="40"} Torrent Download with keygen, crack, serial, dvdrip, 1024, 2016, HD, 720p, 2015
872
      
Rating:
(votes: 0)

Reviews -
0