Login
» » VA - Shanghai Lounge Vol. 2 (2004)

VA - Shanghai Lounge Vol. 2 (2004)


VA - Shanghai Lounge Vol. 2 (2004)
EAC | FLAC | Image (Cue&Log) ~ 965 Mb (incl 5%) | Mp3 (CBR320) ~ 383 Mb (incl 5%) | Scans included
Genre: Chillout, Lounge | Label: High Note Records | # HN193CD | Time: 02:19:44

From the High Note Records label, this is volume 2 in the beautifully packaged collection of exquisite, high-end lounge music featuring Praful, Television Robbers, Alacran, Mr. Scruff, Fragile States, Ive Mendes, Sharpshooters and more. This 2 CD set is ideal for a mellow dinner party or a late-night chill-out session.


Tracklist:

CD1:

01. Praful - One Day Deep (05:50)
02. Television Robbers - Puddleflower (05:09)
03. Alacran - Reflejo De Luna (04:16)
04. Cantoma - Balafia (05:41)
05. Desansis - Bossa Max (04:58)
06. Mystic Diversions - Sensual Wanderer (04:08)
07. DJ Maharashtra - Life In Kandy (05:40)
08. Mr. Scruff - Get A Move On (03:25)
09. Fragile State - The Facts And The Dreams (04:59)
10. Ive Mendes - Nao Vou Fugir (05:13)
11. The Sharpshooters - Velvet Touch (03:37)
12. Karuan - Dunya (Nickodemus Remix) (05:30)
13. Monodeluxe - Lemon Squash (05:42)
14. Milano - Extra Mild (05:12)
15. Quantic - Intro/The 5th Exotic (04:48)

CD2:

01. Ive Mendes - Nao Vou Fugir (04:33)
02. Praful - One Day Deep (05:30)
03. Mystic Diversions - Sensual Wanderer (02:55)
04. Fragile State - The Facts And The Dreams (04:48)
05. The Sharpshooters - Velvet Touch (02:46)
06. Television Robbers - Puddleflower (04:29)
07. Monodeluxe - Lemon Squash (05:00)
08. Karuan - Dunya (Nickodemus Remix) (04:35)
09. D.J. Maharashatra - Life In Kandy (04:47)
10. Quantic - Intro / The 5th Exotic (03:46)
11. Milan - Extramild (04:31)
12. Alacran - Reflejo De Luna (04:32)
13. Cantoma - Balafia (05:09)
14. Desansis - Bossa Max (04:48)
15. Mr. Scruff - Get A Move On (03:13)


EAC log CD1
Exact Audio Copy V1.0 beta 3 from 29. August 2011

Отчёт EAC об извлечении, выполненном 25. июля 2012, 17:20

Various Artists / Shanghai Lounge Vol. 2 (Disc 1)

Дисковод: PIONEER DVD-RW DVR-219L Adapter: 0 ID: 0

Режим чтения : Достоверность
Использование точного потока : Да
Отключение кэша аудио : Да
Использование указателей C2 : Нет

Коррекция смещения при чтении : 6
Способность читать области Lead-in и Lead-out : Нет
Заполнение пропущенных сэмплов тишиной : Да
Удаление блоков с тишиной в начале и конце : Нет
При вычислениях CRC использовались нулевые сэмплы : Да
Интерфейс : Встроенный Win32-интерфейс для Win NT/2000

Выходной формат : Пользовательский кодировщик
Выбранный битрейт : 640 kBit/s
Качество : Высокий
Добавление ID3-тега : Нет
Утилита сжатия : C:Program Files (x86)Exact Audio CopyFlacflac.exe
Дополнительные параметры : -V -8 -T "Date=%year%" -T "Genre=%genre%" %source% TOC извлечённого CD

Трек | Старт | Длительность | Начальный сектор | Конечный сектор
---------------------------------------------------------------------
1 | 0:00.00 | 5:50.51 | 0 | 26300
2 | 5:50.51 | 5:09.58 | 26301 | 49533
3 | 11:00.34 | 4:16.35 | 49534 | 68768
4 | 15:16.69 | 5:41.56 | 68769 | 94399
5 | 20:58.50 | 4:58.26 | 94400 | 116775
6 | 25:57.01 | 4:08.43 | 116776 | 135418
7 | 30:05.44 | 5:40.64 | 135419 | 160982
8 | 35:46.33 | 3:25.55 | 160983 | 176412
9 | 39:12.13 | 4:59.56 | 176413 | 198893
10 | 44:11.69 | 5:13.28 | 198894 | 222396
11 | 49:25.22 | 3:37.39 | 222397 | 238710
12 | 53:02.61 | 5:29.72 | 238711 | 263457
13 | 58:32.58 | 5:42.01 | 263458 | 289108
14 | 64:14.59 | 5:12.07 | 289109 | 312515
15 | 69:26.66 | 4:48.43 | 312516 | 334158 Характеристики диапазона извлечения и сообщения об ошибках

Выбранный диапазон

Имя файла E:dvdaVarious Artists - Shanghai Lounge Vol. 2 (Disc 1).wav

Пиковый уровень 98.8 %
Скорость извлечения 1.9 X
Качество диапазона 99.9 %
CRC теста 6031C8FB
CRC копии 6031C8FB
Копирование... OK

Ошибок не произошло

Конец отчёта

==== Контрольная сумма отчёта FCE9E795110D798055B733A4C34F3BAD38B90FBE2AC294F9D8D2AB862689E3D2 ====

DR log CD1
foobar2000 1.3.8 / Dynamic Range Meter 1.1.1
log date: 2015-05-30 17:08:48

--------------------------------------------------------------------------------
Analyzed: Alacran / Shanghai Lounge Vol. 2 (Disc 1) (1)
Cantoma / Shanghai Lounge Vol. 2 (Disc 1) (2)
Desansis / Shanghai Lounge Vol. 2 (Disc 1) (3)
DJ Maharashtra / Shanghai Lounge Vol. 2 (Disc 1) (4)
Fragile State / Shanghai Lounge Vol. 2 (Disc 1) (5)
Ive Mendes / Shanghai Lounge Vol. 2 (Disc 1) (6)
Karuan / Shanghai Lounge Vol. 2 (Disc 1) (7)
Milano / Shanghai Lounge Vol. 2 (Disc 1) (8)
--------------------------------------------------------------------------------

DR Peak RMS Duration Track
--------------------------------------------------------------------------------
DR6 -0.28 dB -7.57 dB 4:16 03-Reflejo De Luna
DR8 -0.32 dB -10.04 dB 5:42 04-Balafia
DR7 -0.61 dB -8.50 dB 4:58 05-Bossa Max
DR8 -0.23 dB -10.65 dB 5:41 07-Life In Kandy
DR6 -0.27 dB -8.14 dB 5:00 09-The Facts And The Dreams
DR6 -0.10 dB -8.87 dB 5:13 10-Nao Vou Fugir
DR7 -0.14 dB -8.59 dB 5:30 12-Dunya (Nickodemus Remix)
DR8 -0.28 dB -9.76 dB 5:12 14-Extra Mild
--------------------------------------------------------------------------------

Number of tracks: 8
Official DR value: DR7

Samplerate: 44100 Hz
Channels: 2
Bits per sample: 16
Bitrate: 894 kbps
Codec: FLAC
================================================================================

--------------------------------------------------------------------------------
Statistics for: 13-Lemon Squash
Number of samples: 15082788
Duration: 5:42
--------------------------------------------------------------------------------

Left Right

Peak Value: -0.51 dB --- -0.52 dB
Avg RMS: -8.16 dB --- -8.06 dB
DR channel: 6.42 dB --- 6.33 dB
--------------------------------------------------------------------------------

Official DR Value: DR6

Samplerate: 44100 Hz
Channels: 2
Bits per sample: 16
Bitrate: 894 kbps
Codec: FLAC
================================================================================
--------------------------------------------------------------------------------
Statistics for: 08-Get A Move On
Number of samples: 9072840
Duration: 3:26
--------------------------------------------------------------------------------

Left Right

Peak Value: -0.44 dB --- -0.44 dB
Avg RMS: -10.38 dB --- -10.41 dB
DR channel: 9.00 dB --- 9.01 dB
--------------------------------------------------------------------------------

Official DR Value: DR9

Samplerate: 44100 Hz
Channels: 2
Bits per sample: 16
Bitrate: 894 kbps
Codec: FLAC
================================================================================
--------------------------------------------------------------------------------
Statistics for: 06-Sensual Wanderer
Number of samples: 10962084
Duration: 4:09
--------------------------------------------------------------------------------

Left Right

Peak Value: -0.35 dB --- -0.33 dB
Avg RMS: -9.30 dB --- -9.14 dB
DR channel: 7.15 dB --- 6.75 dB
--------------------------------------------------------------------------------

Official DR Value: DR7

Samplerate: 44100 Hz
Channels: 2
Bits per sample: 16
Bitrate: 894 kbps
Codec: FLAC
================================================================================
--------------------------------------------------------------------------------
Analyzed: Praful / Shanghai Lounge Vol. 2 (Disc 1) (1)
Quantic / Shanghai Lounge Vol. 2 (Disc 1) (2)
--------------------------------------------------------------------------------

DR Peak RMS Duration Track
--------------------------------------------------------------------------------
DR6 -0.17 dB -8.06 dB 5:51 01-One Day Deep
DR6 -0.16 dB -8.56 dB 4:49 15-Intro/The 5th Exotic
--------------------------------------------------------------------------------

Number of tracks: 2
Official DR value: DR6

Samplerate: 44100 Hz
Channels: 2
Bits per sample: 16
Bitrate: 894 kbps
Codec: FLAC
================================================================================

--------------------------------------------------------------------------------
Analyzed: Television Robbers / Shanghai Lounge Vol. 2 (Disc 1) (1)
The Sharpshooters / Shanghai Lounge Vol. 2 (Disc 1) (2)
--------------------------------------------------------------------------------

DR Peak RMS Duration Track
--------------------------------------------------------------------------------
DR6 -0.26 dB -8.11 dB 5:10 02-Puddleflower
DR7 -0.17 dB -8.05 dB 3:38 11-Velvet Touch
--------------------------------------------------------------------------------

Number of tracks: 2
Official DR value: DR7

Samplerate: 44100 Hz
Channels: 2
Bits per sample: 16
Bitrate: 894 kbps
Codec: FLAC
================================================================================


EAC log CD2
Exact Audio Copy V1.0 beta 3 from 29. August 2011

Отчёт EAC об извлечении, выполненном 25. июля 2012, 18:42

Various Artists / Shanghai Lounge, Vol. 2 (Disc 2)

Дисковод: PIONEER DVD-RW DVR-219L Adapter: 0 ID: 0

Режим чтения : Достоверность
Использование точного потока : Да
Отключение кэша аудио : Да
Использование указателей C2 : Нет

Коррекция смещения при чтении : 6
Способность читать области Lead-in и Lead-out : Нет
Заполнение пропущенных сэмплов тишиной : Да
Удаление блоков с тишиной в начале и конце : Нет
При вычислениях CRC использовались нулевые сэмплы : Да
Интерфейс : Встроенный Win32-интерфейс для Win NT/2000

Выходной формат : Пользовательский кодировщик
Выбранный битрейт : 640 kBit/s
Качество : Высокий
Добавление ID3-тега : Нет
Утилита сжатия : C:Program Files (x86)Exact Audio CopyFlacflac.exe
Дополнительные параметры : -V -8 -T "Date=%year%" -T "Genre=%genre%" %source% TOC извлечённого CD

Трек | Старт | Длительность | Начальный сектор | Конечный сектор
---------------------------------------------------------------------
1 | 0:00.00 | 4:33.50 | 0 | 20524
2 | 4:33.50 | 5:30.22 | 20525 | 45296
3 | 10:03.72 | 2:55.16 | 45297 | 58437
4 | 12:59.13 | 4:48.13 | 58438 | 80050
5 | 17:47.26 | 2:46.08 | 80051 | 92508
6 | 20:33.34 | 4:29.60 | 92509 | 112743
7 | 25:03.19 | 5:00.02 | 112744 | 135245
8 | 30:03.21 | 4:35.06 | 135246 | 155876
9 | 34:38.27 | 4:47.54 | 155877 | 177455
10 | 39:26.06 | 3:46.09 | 177456 | 194414
11 | 43:12.15 | 4:31.08 | 194415 | 214747
12 | 47:43.23 | 4:32.32 | 214748 | 235179
13 | 52:15.55 | 5:09.03 | 235180 | 258357
14 | 57:24.58 | 4:48.62 | 258358 | 280019
15 | 62:13.45 | 3:13.45 | 280020 | 294539 Характеристики диапазона извлечения и сообщения об ошибках

Выбранный диапазон

Имя файла E:dvdaVarious Artists - Shanghai Lounge, Vol. 2 (Disc 2).wav

Пиковый уровень 98.4 %
Скорость извлечения 1.8 X
Качество диапазона 99.9 %
CRC теста 72D1202F
CRC копии 72D1202F
Копирование... OK

Ошибок не произошло

Конец отчёта

==== Контрольная сумма отчёта CC1734B79EE0A3C3E3B9E35B3EBEE1E650C5D116AC89C0C862975B27CF2F644C ====

DR log CD2
foobar2000 1.3.8 / Dynamic Range Meter 1.1.1
log date: 2015-05-30 17:09:36

--------------------------------------------------------------------------------
Analyzed: Alacran / Shanghai Lounge, Vol. 2 (Disc 2) (1)
Cantoma / Shanghai Lounge, Vol. 2 (Disc 2) (2)
--------------------------------------------------------------------------------

DR Peak RMS Duration Track
--------------------------------------------------------------------------------
DR7 -0.29 dB -8.84 dB 4:32 12-Reflejo De Luna
DR8 -0.23 dB -9.71 dB 5:09 13-Balafia
--------------------------------------------------------------------------------

Number of tracks: 2
Official DR value: DR8

Samplerate: 44100 Hz
Channels: 2
Bits per sample: 16
Bitrate: 852 kbps
Codec: FLAC
================================================================================

--------------------------------------------------------------------------------
Analyzed: D.J. Maharashatra / Shanghai Lounge, Vol. 2 (Disc 2) (1)
Desansis / Shanghai Lounge, Vol. 2 (Disc 2) (2)
--------------------------------------------------------------------------------

DR Peak RMS Duration Track
--------------------------------------------------------------------------------
DR9 -0.16 dB -11.16 dB 4:48 09-Life In Kandy
DR8 -0.60 dB -9.47 dB 4:49 14-Bossa Max
--------------------------------------------------------------------------------

Number of tracks: 2
Official DR value: DR8

Samplerate: 44100 Hz
Channels: 2
Bits per sample: 16
Bitrate: 852 kbps
Codec: FLAC
================================================================================

--------------------------------------------------------------------------------
Statistics for: 04-The Facts And The Dreams
Number of samples: 12708444
Duration: 4:48
--------------------------------------------------------------------------------

Left Right

Peak Value: -0.34 dB --- -0.28 dB
Avg RMS: -8.03 dB --- -7.63 dB
DR channel: 6.57 dB --- 6.34 dB
--------------------------------------------------------------------------------

Official DR Value: DR6

Samplerate: 44100 Hz
Channels: 2
Bits per sample: 16
Bitrate: 852 kbps
Codec: FLAC
================================================================================
--------------------------------------------------------------------------------
Analyzed: Ive Mendes / Shanghai Lounge, Vol. 2 (Disc 2) (1)
Karuan / Shanghai Lounge, Vol. 2 (Disc 2) (2)
Milan / Shanghai Lounge, Vol. 2 (Disc 2) (3)
--------------------------------------------------------------------------------

DR Peak RMS Duration Track
--------------------------------------------------------------------------------
DR7 -0.30 dB -9.76 dB 4:34 01-Nao Vou Fugir
DR7 -0.24 dB -8.54 dB 4:35 08-Dunya (Nickodemus Remix)
DR9 -0.53 dB -10.84 dB 4:31 11-Extramild
--------------------------------------------------------------------------------

Number of tracks: 3
Official DR value: DR7

Samplerate: 44100 Hz
Channels: 2
Bits per sample: 16
Bitrate: 852 kbps
Codec: FLAC
================================================================================

--------------------------------------------------------------------------------
Analyzed: Monodeluxe / Shanghai Lounge, Vol. 2 (Disc 2) (1)
Mr. Scruff / Shanghai Lounge, Vol. 2 (Disc 2) (2)
--------------------------------------------------------------------------------

DR Peak RMS Duration Track
--------------------------------------------------------------------------------
DR7 -0.32 dB -8.87 dB 5:00 07-Lemon Squash
DR8 -0.26 dB -9.85 dB 3:14 15-Get A Move On
--------------------------------------------------------------------------------

Number of tracks: 2
Official DR value: DR8

Samplerate: 44100 Hz
Channels: 2
Bits per sample: 16
Bitrate: 852 kbps
Codec: FLAC
================================================================================

--------------------------------------------------------------------------------
Statistics for: 03-Sensual Wanderer
Number of samples: 7726908
Duration: 2:55
--------------------------------------------------------------------------------

Left Right

Peak Value: -0.72 dB --- -0.50 dB
Avg RMS: -10.52 dB --- -9.64 dB
DR channel: 8.41 dB --- 7.56 dB
--------------------------------------------------------------------------------

Official DR Value: DR8

Samplerate: 44100 Hz
Channels: 2
Bits per sample: 16
Bitrate: 852 kbps
Codec: FLAC
================================================================================
--------------------------------------------------------------------------------
Analyzed: Praful / Shanghai Lounge, Vol. 2 (Disc 2) (1)
Quantic / Shanghai Lounge, Vol. 2 (Disc 2) (2)
--------------------------------------------------------------------------------

DR Peak RMS Duration Track
--------------------------------------------------------------------------------
DR6 -0.14 dB -7.91 dB 5:30 02-One Day Deep
DR6 -0.25 dB -8.19 dB 3:46 10-Intro / The 5th Exotic
--------------------------------------------------------------------------------

Number of tracks: 2
Official DR value: DR6

Samplerate: 44100 Hz
Channels: 2
Bits per sample: 16
Bitrate: 852 kbps
Codec: FLAC
================================================================================

--------------------------------------------------------------------------------
Statistics for: 06-Puddleflower
Number of samples: 11898180
Duration: 4:30
--------------------------------------------------------------------------------

Left Right

Peak Value: -0.35 dB --- -0.29 dB
Avg RMS: -8.64 dB --- -8.11 dB
DR channel: 7.19 dB --- 6.78 dB
--------------------------------------------------------------------------------

Official DR Value: DR7

Samplerate: 44100 Hz
Channels: 2
Bits per sample: 16
Bitrate: 852 kbps
Codec: FLAC
================================================================================
--------------------------------------------------------------------------------
Statistics for: 05-Velvet Touch
Number of samples: 7325304
Duration: 2:46
--------------------------------------------------------------------------------

Left Right

Peak Value: -0.42 dB --- -0.14 dB
Avg RMS: -8.93 dB --- -7.85 dB
DR channel: 7.49 dB --- 6.75 dB
--------------------------------------------------------------------------------

Official DR Value: DR7

Samplerate: 44100 Hz
Channels: 2
Bits per sample: 16
Bitrate: 852 kbps
Codec: FLAC
================================================================================



All thanks to original releaser - guzonka

VA - The Best of Shanghai Lounge (2010) 2CD




Free Full Download {title limit="40"} form MediaFire, Uploaded.to, Zippyshare, FileSonic, turbobit.net, ul.to, ORON, DepositFiles, rapidgator.net, letitbit.net, extabit.com, filefactory.com. {title limit="40"} Torrent Download with keygen, crack, serial, dvdrip, 1024, 2016, HD, 720p, 2015
317
      
Rating:
(votes: 0)

Reviews -
0