Login
» » Popa Chubby - Peace Love & Respect (2004)

Popa Chubby - Peace Love & Respect (2004)


Popa Chubby - Peace, Love & Respect (2004)
EAC | WV | Image (Cue&Log) ~ 483 Mb (incl 5%) | Mp3 (CBR320) ~ 186 Mb (incl 5%) | Scans included
Genre: Modern Electric Blues | Label: DixieFrog | # DFGCD 8570 | Time: 01:00:11

The King of The New York City Blues returns with what's destined to be one of the most topical and important records of 2004. Twelve tracks of hard hitting, politically inspired songs that run from upholding our first amendment rights in the hard thumping shuffle "Un-American Blues," to protesting the plight of young people dying for the lust of oil and power in "Young Men." Highlights also include "The Top Ten Reasons Why I Can't Sleep At Night," and a high-velocity, hard rock version of the Carter Family classic "Keep On The Sunny Side of Life." In a recent interview Popa was asked, "Where is the outrage in America? Where is the anger over the violation of our rights as Americans and human beings?" Popa simply responded "It is here, and people are waiting for a rallying call, a way and a reason to stand up for their rights as Americans. A way to stand up against the current policies of those in power that do not take in account that America is built on the sweat of the working class."


If you've ever seen Popa Chubby live, you're probably a fan. He pours his heart and soul into his shows and he's got a ton of presence and charisma. That's how he attracted such a loyal following, but listening to his early records alone sure didn't add up to the live experience. Maybe it's because his flippin'-the-bird-till-I-die attitude only went so far without the smoke and beer, but all that began to change with 2002's The Good, the Bad and the Chubby and it's pivotal, 9/11-related cut, "Somebody Let the Devil Out." Peace, Love and Respect equals the energy and inspiration of The Good, the Bad and the Chubby and adds more focus with its overriding frustration with America 2004, George W. Bush in particular. The opening "Top Ten Reasons Why I Can't Sleep at Night" is a gimmicky song with Chubby rattling off a list of grievances and the stiff production does it no favors (a missed opportunity the singer will no doubt correct on the road). "Life Is a Beatdown" is a slow burner that would have found a better home toward the end of the album, but from the slinky and lyrically striking "Like the Buddha Do" to the end of the album there is no filler. Troubled by the attraction of the military, "Young Men" advises the youth to "Stay at home and live your lives." Besides being the centerpiece of the album, it's Chubby's most heartfelt song yet and following it with a roaring version of the Carter Family's "Keep on the Sunny Side" is a dark and poignant move that no one could have foreseen four or five albums ago. The commentary just flows out of Chubby for the rest of the album like Joe Strummer was writing for Double Trouble, and the band stays gritty and tight throughout. Peace, Love and Respect takes some time to really get going, but when it does it's a winning combination of bar band guts and troubled-times reflection that matches the urgency of Chubby's live shows.

Review by David Jeffries, Allmusic.com





Tracklist:

01. Un-American Blues (05:24)
02. The Man On The News (04:27)
03. Top Ten Reasons Why I Can't Sleep At Night (03:30)
04. I'm Not Afraid (07:10)
05. Keep On The Sunny Side Of Life (03:19)
06. Young Men (05:03)
07. Midnight Ride / Peace (06:25)
08. Like The Buddha Do (04:19)
09. The Devil Gonna Drag You Down (04:14)
10. Sweet Release (07:13)
11. Life Is A Beat Down (04:16)
12. See You In Sete (04:45)


EAC log
Exact Audio Copy V0.99 prebeta 4 from 23. January 2008

EAC extraction logfile from 20. February 2009, 8:54

Popa Chubby / Peace, Love and Respect

Used drive : HL-DT-STDVD-ROM DH16NS10 Adapter: 5 ID: 0

Read mode : Secure
Utilize accurate stream : Yes
Defeat audio cache : Yes
Make use of C2 pointers : No

Read offset correction : 102
Overread into Lead-In and Lead-Out : Yes
Fill up missing offset samples with silence : Yes
Delete leading and trailing silent blocks : No
Null samples used in CRC calculations : Yes
Used interface : Installed external ASPI interface

Used output format : Internal WAV Routines
Sample format : 44.100 Hz; 16 Bit; Stereo TOC of the extracted CD

Track | Start | Length | Start sector | End sector
---------------------------------------------------------
1 | 0:00.00 | 5:24.40 | 0 | 24339
2 | 5:24.40 | 4:27.15 | 24340 | 44379
3 | 9:51.55 | 3:30.14 | 44380 | 60143
4 | 13:21.69 | 7:10.12 | 60144 | 92405
5 | 20:32.06 | 3:19.50 | 92406 | 107380
6 | 23:51.56 | 5:03.48 | 107381 | 130153
7 | 28:55.29 | 6:25.61 | 130154 | 159089
8 | 35:21.15 | 4:19.18 | 159090 | 178532
9 | 39:40.33 | 4:14.13 | 178533 | 197595
10 | 43:54.46 | 7:13.41 | 197596 | 230111
11 | 51:08.12 | 4:16.53 | 230112 | 249364
12 | 55:24.65 | 4:45.58 | 249365 | 270797 Range status and errors

Selected range

Filename F:ReleasePopa Chubby - Peace, Love and RespectPopa Chubby - Peace, Love and Respect.wav

Peak level 100.0 %
Range quality 100.0 %
Test CRC A86B7DBA
Copy CRC A86B7DBA
Copy OK

No errors occurred


AccurateRip summary

Track 1 accurately ripped (confidence 3) [2030A22E]
Track 2 accurately ripped (confidence 2) [D77B5C42]
Track 3 accurately ripped (confidence 2) [52184082]
Track 4 accurately ripped (confidence 2) [D7945EF4]
Track 5 accurately ripped (confidence 2) [F61CEA0C]
Track 6 accurately ripped (confidence 2) [7709877D]
Track 7 accurately ripped (confidence 2) [7042ACB6]
Track 8 accurately ripped (confidence 2) [14001527]
Track 9 accurately ripped (confidence 2) [FF90C01F]
Track 10 accurately ripped (confidence 2) [DFA72888]
Track 11 accurately ripped (confidence 2) [9EE12928]
Track 12 accurately ripped (confidence 2) [671CE3A0]

All tracks accurately ripped

End of status report

DR log
foobar2000 1.2 / Dynamic Range Meter 1.1.1
log date: 2015-07-02 21:29:39

--------------------------------------------------------------------------------
Analyzed: Popa Chubby / Peace, Love and Respect
--------------------------------------------------------------------------------

DR Peak RMS Duration Track
--------------------------------------------------------------------------------
DR9 0.00 dB -9.32 dB 5:25 01-Un-American Blues
DR9 0.00 dB -10.33 dB 4:27 02-The Man On The News
DR7 0.00 dB -8.92 dB 3:30 03-Top Ten Reasons Why I Can't Sleep At Night
DR10 0.00 dB -11.44 dB 7:10 04-I'm Not Afraid
DR7 0.00 dB -8.02 dB 3:20 05-Keep On The Sunny Side Of Life
DR8 0.00 dB -9.75 dB 5:04 06-Young Men
DR9 0.00 dB -10.47 dB 6:26 07-Midnight Ride / Peace
DR7 0.00 dB -8.50 dB 4:19 08-Like The Buddha Do
DR8 0.00 dB -8.54 dB 4:14 09-The Devil Gonna Drag You Down
DR8 0.00 dB -9.48 dB 7:14 10-Sweet Release
DR8 0.00 dB -9.31 dB 4:17 11-Life Is A Beat Down
DR7 0.00 dB -8.10 dB 4:46 12-See You In Sete
--------------------------------------------------------------------------------

Number of tracks: 12
Official DR value: DR8

Samplerate: 44100 Hz
Channels: 2
Bits per sample: 16
Bitrate: 978 kbps
Codec: WavPack
================================================================================



All thanks to original releaser - Гордый






Free Full Download {title limit="40"} form MediaFire, Uploaded.to, Zippyshare, FileSonic, turbobit.net, ul.to, ORON, DepositFiles, rapidgator.net, letitbit.net, extabit.com, filefactory.com. {title limit="40"} Torrent Download with keygen, crack, serial, dvdrip, 1024, 2016, HD, 720p, 2015
567
      
Rating:
(votes: 0)

Reviews -
0