Login
» » Bernard Allison - No Mercy (1994)

Bernard Allison - No Mercy (1994)


Bernard Allison - No Mercy (1994)
EAC | WV | Image (Cue&Log) ~ 375 Mb (incl 5%) | Mp3 (CBR320) ~ 149 Mb (incl 5%) | Scans included
Genre: Modern Electric Blues, Blues Rock | Label: in-akustik | # INAK 9029 CD | Time: 00:54:42

When it comes to the blues, it seems like there are two different camps -- those who are staunch authentic blues enthusiasts, and those who like their blues amped up with a decidedly rock approach. On his 1994 live release, No Mercy, singer/guitarist Bernard Allison certainly falls under the latter category. As with the majority of modern-day blues-rockers, Allison focuses mostly on covers of vintage blues tunes, with the odd original (or more accurately, one lone original -- "Next Generation") thrown in for good measure. With Allison backed by a group of studio pros, No Mercy captures blues at its most well-honed -- the complete opposite of the grittiness of the original bluesmen -- especially on such tracks as the album-opening "Rock Me Baby" and "Breakin' Up Somebody's Home." Also included are a pair of tributes to Bernard's father, Luther Allison ("Change Your Way of Living" and "Help") as well as a reading of "Tin Pan Alley," which is very reminiscent of Stevie Ray Vaughan's version (on his classic Couldn't Stand the Weather release). If you're an admirer of modern-day blues-rock, then No Mercy is certainly worth a spin.

Review by Greg Prato, Allmusic.com





Tracklist:

01. Rock Me Baby (07:30)
02. Don't Go To Sleep On Me (04:24)
03. Break'in Up Somebody' Home (04:59)
04. Change Your Way Of Living (03:50)
05. Driven Wheel (08:27)
06. Next Generation (05:32)
07. Boo Boo's Boogie (01:20)
08. Tin Pan Alley (13:23)
09. Help (05:12)


EAC log
Exact Audio Copy V0.99 prebeta 4 from 23. January 2008

EAC extraction logfile from 31. March 2008, 22:54

Bernard Allison / No Mercy

Used drive : TSSTcorpCD/DVDW SH-S182M Adapter: 4 ID: 0

Read mode : Secure
Utilize accurate stream : Yes
Defeat audio cache : Yes
Make use of C2 pointers : No

Read offset correction : 6
Overread into Lead-In and Lead-Out : No
Fill up missing offset samples with silence : Yes
Delete leading and trailing silent blocks : No
Null samples used in CRC calculations : Yes
Used interface : Installed external ASPI interface

Used output format : Internal WAV Routines
Sample format : 44.100 Hz; 16 Bit; Stereo TOC of the extracted CD

Track | Start | Length | Start sector | End sector
---------------------------------------------------------
1 | 0:00.00 | 7:30.42 | 0 | 33791
2 | 7:30.42 | 4:24.43 | 33792 | 53634
3 | 11:55.10 | 4:59.57 | 53635 | 76116
4 | 16:54.67 | 3:50.10 | 76117 | 93376
5 | 20:45.02 | 8:27.53 | 93377 | 131454
6 | 29:12.55 | 5:32.17 | 131455 | 156371
7 | 34:44.72 | 1:20.53 | 156372 | 162424
8 | 36:05.50 | 13:23.40 | 162425 | 222689
9 | 49:29.15 | 5:12.67 | 222690 | 246156 Range status and errors

Selected range

Filename F:ReleaseBernard Allison - No MercyBernard Allison - No Mercy.wav

Peak level 99.0 %
Range quality 100.0 %
Test CRC B3B3BCDA
Copy CRC B3B3BCDA
Copy OK

No errors occurred


AccurateRip summary

Track 1 accurately ripped (confidence 1) [F0937691]
Track 2 accurately ripped (confidence 1) [9A4EC33E]
Track 3 accurately ripped (confidence 1) [1C4E19FD]
Track 4 accurately ripped (confidence 1) [437B3317]
Track 5 accurately ripped (confidence 1) [A71D38DD]
Track 6 accurately ripped (confidence 1) [289DC497]
Track 7 accurately ripped (confidence 1) [0B090F81]
Track 8 accurately ripped (confidence 1) [7CEF8FBA]
Track 9 accurately ripped (confidence 1) [52DC3621]

All tracks accurately ripped

End of status report

DR log
foobar2000 1.2 / Dynamic Range Meter 1.1.1
log date: 2015-06-15 14:41:34

--------------------------------------------------------------------------------
Analyzed: Bernard Allison / No Mercy
--------------------------------------------------------------------------------

DR Peak RMS Duration Track
--------------------------------------------------------------------------------
DR8 -0.20 dB -9.62 dB 7:31 01-Rock Me Baby
DR7 -0.12 dB -8.16 dB 4:25 02-Don't Go To Sleep On Me
DR7 -0.08 dB -8.47 dB 5:00 03-Break'in Up Somebody' Home
DR9 -0.09 dB -10.82 dB 3:50 04-Change Your Way Of Living
DR9 -0.09 dB -12.58 dB 8:28 05-Driven Wheel
DR7 -0.09 dB -8.09 dB 5:32 06-Next Generation
DR11 -2.94 dB -17.00 dB 1:21 07-Boo Boo's Boogie
DR12 -0.09 dB -15.78 dB 13:24 08-Tin Pan Alley
DR8 -0.08 dB -9.70 dB 5:13 09-Help
--------------------------------------------------------------------------------

Number of tracks: 9
Official DR value: DR9

Samplerate: 44100 Hz
Channels: 2
Bits per sample: 16
Bitrate: 870 kbps
Codec: WavPack
================================================================================



All thanks to original releaser - Гордый

Bernard Allison - Higher Power (2004)




Free Full Download {title limit="40"} form MediaFire, Uploaded.to, Zippyshare, FileSonic, turbobit.net, ul.to, ORON, DepositFiles, rapidgator.net, letitbit.net, extabit.com, filefactory.com. {title limit="40"} Torrent Download with keygen, crack, serial, dvdrip, 1024, 2016, HD, 720p, 2015
654
      
Rating:
(votes: 0)

Reviews -
0