Login
» » Christmas in New York - Renee Fleming (2014)

Christmas in New York - Renee Fleming (2014)


Christmas in New York - Renee Fleming (2014)
EAC Rip | Flac (Image + cue + log) | 286 MB | MP3 320Kbps CBR | 136 MB | 1 CD | Full Scans
Genre: Classical | Label: Decca | Catalog Number: 002110402

American soprano Renee Fleming’s first-ever holiday album celebrates the beloved and iconic Christmas season in New York City. From Rockefeller Center to the holiday windows lining 5th Avenue, the essence of the city at the most wonderful time of year is captured on Christmas in New York. With guests representing such genres as jazz, pop and classical, this album will appeal not only to Fleming’s core classical fan base but also to a broader, music savvy consumer.

Joining Fleming for the Christmas celebration are guest artists ranging from Rufus Wainwright and Gregory Porter to Wynton Marsalis and Kurt Elling.

Fleming’s elegant persona along with the intimate arrangements of holiday classics makes this album perfect for holiday parties, stocking stuffers and as a treasured holiday gift. This sophisticated album is sure to be a perennial favourite.

Composer: Felix Bernard, Hugh Martin, Jay Livingston, Richard Carpenter, ...
Performer: Wynton Marsalis, Renée Fleming, Daniel Nimmer, Gregory Porter, ...


Tracklisting:

01. Winter Wonderland (with Wynton Marsalis) (3:50)
02. Have Yourself A Merry Little Christmas (with Gregory Porter) (3:35)
03. Silver Bells (with Kelli O'Hara) (3:07)
04. Merry Christmas Darling (with Chris Botti) (5:36)
05. Christmas Waltz (3:19)
06. Who Knows Where The Time Goes (with Brad Mehldau) (4:26)
07. Sleigh Ride (with Wynton Marsalis) (5:17)
08. Snowbound (with Kurt Elling) (6:28)
09. In The Bleak Midwinter (with Rufus Wainwright) (3:46)
10. Central Park Serenade (with Gregory Porter) (4:12)
11. The Man With The Bag (2:40)
12. Love And Hard Times (with Brad Mehldau) (4:46)
13. Still, Still, Still (with Kurt Elling) (5:16)

EAC LOG
Exact Audio Copy V0.99 prebeta 5 from 4. May 2009

Отчёт EAC об извлечении, выполненном 17. ноября 2014, 21:27

Renйe Fleming / Christmas in New York

Дисковод: ASUS SBC-06D1S-U Adapter: 3 ID: 0

Режим чтения : Достоверность
Использование точного потока : Да
Отключение кэша аудио : Да
Использование указателей C2 : Нет

Коррекция смещения при чтении : 102
Способность читать области Lead-in и Lead-out : Нет
Заполнение пропущенных сэмплов тишиной : Да
Удаление блоков с тишиной в начале и конце : Нет
При вычислениях CRC использовались нулевые сэмплы : Да
Интерфейс : Встроенный Win32-интерфейс для Win NT/2000

Выходной формат : Пользовательский кодировщик
Выбранный битрейт : 768 kBit/s
Качество : Высокий
Добавление ID3-тэга : Нет
Утилита сжатия : C:Program Files (x86)Exact Audio CopyFlacflac.exe
Дополнительные параметры : -6 -V -T "ARTIST=%a" -T "TITLE=%t" -T "ALBUM=%g" -T "DATE=%y" -T "TRACKNUMBER=%n" -T "GENRE=%m" -T "COMMENT=%e" %s -o %d

TOC извлечённого CD

Трек | Старт | Длительность | Начальный сектор | Конечный сектор
---------------------------------------------------------------------
1 | 0:00.00 | 3:50.21 | 0 | 17270
2 | 3:50.21 | 3:35.04 | 17271 | 33399
3 | 7:25.25 | 3:06.45 | 33400 | 47394
4 | 10:31.70 | 5:35.44 | 47395 | 72563
5 | 16:07.39 | 3:18.74 | 72564 | 87487
6 | 19:26.38 | 4:25.57 | 87488 | 107419
7 | 23:52.20 | 5:17.21 | 107420 | 131215
8 | 29:09.41 | 6:27.72 | 131216 | 160312
9 | 35:37.38 | 3:46.09 | 160313 | 177271
10 | 39:23.47 | 4:12.32 | 177272 | 196203
11 | 43:36.04 | 2:39.59 | 196204 | 208187
12 | 46:15.63 | 4:45.51 | 208188 | 229613
13 | 51:01.39 | 5:16.30 | 229614 | 253343

Характеристики диапазона извлечения и сообщения об ошибках

Выбранный диапазон

Имя файла F:EAC_AdvantiXPART2NEWRenee Fleming - Christmas in New YorkRenee Fleming - Christmas in New York.wav

Пиковый уровень 97.9 %
Качество диапазона 100.0 %
CRC копии DD1590F1
Копирование... OK

Ошибок не произошло

AccurateRip: сводка

Трек 1 нет в базе данных
Трек 2 нет в базе данных
Трек 3 нет в базе данных
Трек 4 нет в базе данных
Трек 5 нет в базе данных
Трек 6 нет в базе данных
Трек 7 нет в базе данных
Трек 8 нет в базе данных
Трек 9 нет в базе данных
Трек 10 нет в базе данных
Трек 11 нет в базе данных
Трек 12 нет в базе данных
Трек 13 нет в базе данных

Ни одного трека нет в базе AccurateRip

Конец отчёта
Thanks to the original releaser

Download:

Nitroflare: FLAC | MP3

Uploadable: FLAC | MP3



Free Full Download {title limit="40"} form MediaFire, Uploaded.to, Zippyshare, FileSonic, turbobit.net, ul.to, ORON, DepositFiles, rapidgator.net, letitbit.net, extabit.com, filefactory.com. {title limit="40"} Torrent Download with keygen, crack, serial, dvdrip, 1024, 2016, HD, 720p, 2015
857
      
Rating:
(votes: 0)

Reviews -
0